<?xml version="1.0" standalone="no"?>
<!DOCTYPE svg PUBLIC "-//W3C//DTD SVG 1.1//EN" "http://www.w3.org/Graphics/SVG/1.1/DTD/svg11.dtd" >
<svg xmlns="http://www.w3.org/2000/svg">
<metadata>Generated by IcoMoon</metadata>
<defs>
<font id="gform-icons-admin" horiz-adv-x="1024">
<font-face units-per-em="1024" ascent="960" descent="-64" />
<missing-glyph horiz-adv-x="1024" />
<glyph unicode="&#x20;" horiz-adv-x="512" d="" />
<glyph unicode="&#xe900;" glyph-name="mailerlite" d="M869.026 816h-715.516c-55.602 0-100.962-45.36-100.962-99.499v-636.501l139.006 136.081h678.935c55.603 0 100.962 45.359 100.962 99.499v400.921c-1.463 54.139-46.822 99.499-102.426 99.499z" />
<glyph unicode="&#xe902;" glyph-name="abuse-filter" d="M473.212 256c0 148.608 121.408 268.8 271.514 268.8 41.894 0 81.067-9.6 116.365-26.112v256.512c0 42.24-34.91 76.8-77.577 76.8h-620.605c-42.667 0-77.576-34.56-77.576-76.8v-691.2l155.151 153.6h232.727c0 6.528 0.388 12.672 1.165 19.2-0.777 6.528-1.165 12.672-1.165 19.2zM744.725 448c-107.149 0-193.937-85.918-193.937-192 0-106.078 86.788-192 193.937-192 107.153 0 193.941 85.922 193.941 192 0 106.082-86.788 192-193.941 192zM623.514 256c0 66.24 54.306 120 121.212 120 20.365 0 38.788-5.278 55.761-13.918l-162.91-161.28c-8.73 16.798-14.063 35.038-14.063 55.198zM744.725 136c-20.361 0-38.784 5.278-55.757 13.918l162.91 161.284c8.73-16.802 14.063-35.042 14.063-55.202 0-66.24-54.306-120-121.216-120z" />
<glyph unicode="&#xe903;" glyph-name="circle-error-fine" d="M949.94 448c0 243.406-197.321 440.727-440.727 440.727s-440.728-197.322-440.728-440.727c0-243.406 197.321-440.727 440.728-440.727s440.727 197.321 440.727 440.727zM886.979 448c0-208.637-169.13-377.767-377.767-377.767-208.635 0-377.768 169.13-377.768 377.767 0 208.635 169.132 377.767 377.768 377.767s377.767-169.132 377.767-377.767zM627.932 566.721c-10.925 10.927-28.643 10.927-39.572 0l-79.147-79.149-79.148 79.149c-10.927 10.927-28.645 10.927-39.573 0s-10.927-28.645 0-39.573l79.148-79.148-79.148-79.147c-10.927-10.929-10.927-28.647 0-39.572 10.927-10.929 28.645-10.929 39.573 0l79.148 79.147 79.147-79.147c10.929-10.929 28.647-10.929 39.572 0 10.929 10.925 10.929 28.643 0 39.572l-79.147 79.147 79.147 79.148c10.929 10.927 10.929 28.645 0 39.573z" />
<glyph unicode="&#xe904;" glyph-name="accessibility" d="M885.333 661.76c-5.973 23.467-29.44 37.12-52.907 32-101.547-22.613-214.613-32.427-320.427-32.427s-218.88 9.813-320.427 32.427c-23.467 5.12-46.933-8.533-52.907-32-5.973-23.893 8.533-48.213 32-53.76 68.693-15.36 142.933-26.027 213.333-32v-512c0-23.467 19.2-42.667 42.667-42.667s42.667 19.2 42.667 42.667v213.333h85.333v-213.333c0-23.467 19.2-42.667 42.667-42.667s42.667 19.2 42.667 42.667v512c70.4 5.973 144.64 16.64 212.907 32 23.893 5.547 38.4 29.867 32.427 53.76zM512 704c46.933 0 85.333 38.4 85.333 85.333s-38.4 85.333-85.333 85.333c-46.933 0-85.334-38.4-85.334-85.333s38.4-85.333 85.334-85.333z" />
<glyph unicode="&#xe905;" glyph-name="active-campaign" d="M800.691 509.38c-13.218 11.332-551.488 387.175-576.041 402.285l-7.552 5.668v-92.544c0-30.219 15.107-39.663 33.994-54.772l3.777-1.891c26.441-18.887 409.839-285.187 460.834-321.074-50.995-35.883-440.059-305.963-464.611-321.071-30.219-18.884-32.108-32.107-32.108-58.547v-88.768c0 0 572.264 398.507 583.596 407.949 26.441 18.889 32.107 43.439 32.107 58.551v11.332c0 18.884-11.332 37.773-33.997 52.881zM464.525 405.508c15.108 0 30.217 5.666 45.329 16.994 18.884 13.222 35.883 24.555 35.883 24.555l5.666 3.776-5.666 3.776c-1.894 1.894-253.081 175.647-279.522 192.645-11.332 9.443-26.441 11.333-35.885 5.668-9.443-5.668-16.996-15.11-16.996-30.219v-58.549l1.891-1.891c1.891-1.892 173.755-120.876 207.751-143.537 15.109-9.446 28.327-13.218 41.549-13.218z" />
<glyph unicode="&#xe906;" glyph-name="advanced-post-creation" d="M768 448c-23.467 0-42.667-19.2-42.667-42.667v-222.72c0-23.467-19.2-42.667-42.667-42.667h-426.667c-23.467 0-42.667 19.2-42.667 42.667v436.053c0 23.467 19.2 42.667 42.667 42.667h213.333c23.467 0 42.667 19.2 42.667 42.667s-19.2 42.667-42.667 42.667h-256c-46.933 0-85.333-38.4-85.333-85.333v-512c0-46.933 38.4-85.333 85.333-85.333h512c46.933 0 85.333 38.4 85.333 85.333v256c0 23.467-19.2 42.667-42.667 42.667zM896.853 746.667h-86.187v86.187c0 23.040-18.773 41.813-41.813 41.813h-1.28c-23.467 0-42.24-18.773-42.24-41.813v-86.187h-85.76c-23.040 0-41.813-18.773-42.24-41.813 0-0.427 0-0.853 0-1.28 0-23.467 18.773-42.24 42.24-42.24h85.76v-85.76c0-23.040 18.773-42.24 42.24-41.813 0.427 0 0.853 0 1.28 0 23.040 0 41.813 18.773 41.813 41.813v85.76h86.187c23.040 0 41.813 18.773 41.813 41.813v1.707c0 23.040-18.773 41.813-41.813 41.813zM597.333 576h-256c-23.467 0-42.667-19.2-42.667-42.667s19.2-42.667 42.667-42.667h256c23.467 0 42.667 19.2 42.667 42.667s-19.2 42.667-42.667 42.667zM597.333 448h-256c-23.467 0-42.667-19.2-42.667-42.667s19.2-42.667 42.667-42.667h256c23.467 0 42.667 19.2 42.667 42.667s-19.2 42.667-42.667 42.667zM597.333 320h-256c-23.467 0-42.667-19.2-42.667-42.667s19.2-42.667 42.667-42.667h256c23.467 0 42.667 19.2 42.667 42.667s-19.2 42.667-42.667 42.667z" />
<glyph unicode="&#xe907;" glyph-name="agile-crm" d="M451.337 787.232c39.185 2.626 78.767 3.085 117.888-0.328 101.811-20.086 186.615-103.909 211.43-204.207 9.318-34.067 9.515-69.776 6.234-104.694 41.553 5.116 84.809-2.432 119.795-26.193 48.969-31.706 78.835-90.65 74.172-149.005-1.114-84.348-78.374-160.619-163.311-157.205-172.962 0.128-345.924 0.064-518.888 0.064-34.198 0.064-69.513-2.035-102.136 10.044-63.737 21.069-116.709 71.808-140.799 134.43-16.87 39.518-13.522 83.759-10.896 125.636 15.491 96.819 101.874 173.881 198.299 185.368 30.589 92.553 111.851 167.974 208.211 186.090zM306.534 597.926c63.212-11.028 117.037-48.311 173.88-75.682-9.254-17.463-18.509-34.923-28.092-52.186-32.099 18.641-66.101 33.609-98.855 51.004-38.137 19.756-83.035 28.158-125.045 17.131-77.587-18.052-135.613-96.098-129.246-175.718 3.873-85.99 81.263-160.030 167.317-160.030 181.626-0.201 363.19 0.064 544.749-0.132 44.766-1.182 87.629 27.964 104.303 69.248 16.87 41.156 4.988 91.635-28.489 120.845-30.588 29.67-79.36 35.511-117.692 18.906-12.147-28.621-27.571-55.991-48.051-79.424-14.639 12.928-29.47 25.728-44.373 38.4 27.439 32.883 46.276 73.186 51.593 115.853 14.31 98.855-47.915 201.254-141.845 234.731-106.010 42.929-241.623-14.441-280.154-122.944z" />
<glyph unicode="&#xe908;" glyph-name="analytics" d="M229.819 21.333c56.233 0 101.818 45.585 101.818 101.815 0 56.235-45.585 101.82-101.818 101.82s-101.819-45.585-101.819-101.82c0-56.23 45.586-101.815 101.819-101.815zM661.333 772.849v-640.002c0-71.612 49.455-111.514 101.82-111.514 48.482 0 101.82 33.941 101.82 111.514v635.153c0 65.649-48.486 106.667-101.82 106.667s-101.82-45.236-101.82-101.818zM394.667 447.996v-315.153c0-71.612 49.455-111.514 101.82-111.514 48.482 0 101.82 33.937 101.82 111.514v310.302c0 65.651-48.486 106.668-101.82 106.668s-101.82-45.236-101.82-101.817z" />
<glyph unicode="&#xe909;" glyph-name="api" d="M554.667 405.333c-23.893-23.893-61.867-23.893-85.333-0.427v0.427c-23.467 23.467-23.467 61.44 0 84.907v0.427c23.467 23.467 61.44 23.467 84.907 0h0.427c23.467-23.467 23.467-61.867 0-85.333zM512 704.002l90.453-90.453 106.667 106.667-136.533 136.533c-33.28 33.28-87.467 33.28-120.747 0l-136.534-136.533 106.667-106.667 90.027 90.453zM256 448l90.453 90.455-106.667 106.667-136.533-136.535c-33.28-33.28-33.28-87.467 0-120.747l136.533-136.533 106.667 106.667-90.453 90.027zM768 448l-90.453-90.453 106.667-106.667 136.533 136.533c33.28 33.28 33.28 87.467 0 120.747l-136.533 136.535-106.667-106.667 90.453-90.028zM512 192l-90.454 90.453-106.667-106.667 136.534-136.533c33.28-33.28 87.467-33.28 120.747 0l136.533 136.533-106.667 106.667-90.027-90.453z" />
<glyph unicode="&#xe90a;" glyph-name="authorize-dot-net" d="M256 960c-117.821 0-213.333-95.513-213.333-213.333v-512c0-117.82 95.513-213.333 213.333-213.333h512c117.82 0 213.333 95.514 213.333 213.333v512c0 117.821-95.514 213.333-213.333 213.333h-512zM853.333 219.678v-27.678h-299.251v18.449h28.053c37.406 9.229 46.758 18.453 28.058 64.576-9.353 36.902-28.058 92.254-46.758 129.156h-187.033c-2.102-6.221-4.676-13.372-7.51-21.248-9.776-27.162-22.647-62.921-29.897-98.679-9.352-46.127-9.352-55.351 37.406-64.576h28.055v-27.678h-233.79v27.678c65.461 0 74.813 9.225 112.219 101.474l215.085 535.064 46.758 18.45 65.463-193.73c37.751-96.831 75.503-199.678 108.335-289.112 7.829-21.333 15.381-41.903 22.588-61.449 36.25-98.338 54.933-101.38 107.119-109.867 1.664-0.273 3.362-0.55 5.099-0.832zM479.27 680.937l74.812-212.18h-149.626l74.814 212.18z" />
<glyph unicode="&#xe90b;" glyph-name="aweber" d="M279.181 917.333h-7.391c-125.648 0-229.123-103.475-229.123-229.123v-477.957c0-125.649 103.475-229.124 229.123-229.124h17.246c-59.129 155.213-88.693 317.82-88.693 485.35 0 155.212 27.101 305.497 78.838 450.854zM749.751 917.333h-305.498c-56.666-140.431-88.693-293.179-88.693-450.854 0-172.459 36.955-335.061 103.473-485.35h293.18c125.649 0 229.124 103.475 229.124 229.124v477.957c-2.462 125.648-105.937 229.123-231.586 229.123zM604.395 40.26c-17.246-12.318-41.886-9.856-56.666 7.39-86.229 113.331-133.040 251.298-133.040 394.189 0 145.36 46.811 283.326 133.040 396.656 14.78 17.246 39.42 19.709 56.666 7.391 17.246-14.782 19.708-39.419 7.39-56.665-73.911-96.084-115.793-216.805-115.793-347.383 0-130.573 44.348-248.832 115.793-344.913 0 0 0 0 2.462-2.466 12.322-17.246 9.856-41.882-9.852-54.199zM752.213 153.587c-12.318-9.852-29.564-7.39-36.954 4.928-61.594 78.839-98.547 174.925-98.547 283.324 0 105.94 36.954 204.488 98.547 283.326 0 0 0 0 0 2.464 9.856 12.318 27.102 12.318 36.954 4.927 12.318-9.855 12.318-27.101 4.928-36.955 0 0 0 0-2.462-2.464-54.204-68.983-86.229-155.213-86.229-248.832s32.026-179.849 86.229-248.832c0 0 0 0 2.462-2.466 9.856-12.318 7.39-29.564-4.928-39.42z" />
<glyph unicode="&#xe90c;" glyph-name="back" d="M473.186 619.961c12.497-12.497 12.497-32.758 0-45.255l-94.705-94.706h357.519c17.673 0 32-14.327 32-32s-14.327-32-32-32h-357.519l94.705-94.707c12.497-12.497 12.497-32.755 0-45.252s-32.755-12.497-45.252 0l-171.962 171.959 171.962 171.961c12.497 12.497 32.755 12.497 45.252 0z" />
<glyph unicode="&#xe90d;" glyph-name="body" d="M597.333 320h-426.667c-23.467 0-42.667-19.2-42.667-42.667s19.2-42.667 42.667-42.667h426.667c23.467 0 42.667 19.2 42.667 42.667s-19.2 42.667-42.667 42.667zM597.333 661.333h-426.667c-23.467 0-42.667-19.2-42.667-42.667s19.2-42.667 42.667-42.667h426.667c23.467 0 42.667 19.2 42.667 42.667s-19.2 42.667-42.667 42.667zM170.667 405.333h682.667c23.467 0 42.667 19.2 42.667 42.667s-19.2 42.667-42.667 42.667h-682.667c-23.467 0-42.667-19.2-42.667-42.667s19.2-42.667 42.667-42.667zM170.667 64h682.667c23.467 0 42.667 19.2 42.667 42.667s-19.2 42.667-42.667 42.667h-682.667c-23.467 0-42.667-19.2-42.667-42.667s19.2-42.667 42.667-42.667zM128 789.333c0-23.467 19.2-42.667 42.667-42.667h682.667c23.467 0 42.667 19.2 42.667 42.667s-19.2 42.667-42.667 42.667h-682.667c-23.467 0-42.667-19.2-42.667-42.667z" />
<glyph unicode="&#xe90e;" glyph-name="breeze" d="M44.083 210.761l401.391 401.393 131.362-131.33 327.394 327.427 76.941-76.94-403.034-403.063-132.787 132.753-325.722-325.751-75.546 75.511zM406.611 903.401l-363.945-358.741 82.081-83.288 315.316 310.607 131.733-133.746 83.226 82.143-179.895 182.53c-9.024 9.145-21.308 14.334-34.155 14.427s-25.207-4.918-34.362-13.931zM981.342 395.767l-83.106 83.102-314.603-314.539-133.372 133.342-83.074-83.042 182.095-182.097c9.131-9.118 21.508-14.242 34.415-14.242 12.902 0 25.28 5.124 34.411 14.242l363.234 363.234z" />
<glyph unicode="&#xe90f;" glyph-name="campaign-monitor" d="M928.141 732.901c-2.432 3.476-5.525 6.438-9.101 8.717s-7.569 3.829-11.746 4.563c-4.177 0.733-8.461 0.635-12.599-0.289s-8.055-2.656-11.524-5.096l-792.080-554.535c2.969-4.25 6.921-7.723 11.521-10.116s9.71-3.639 14.895-3.635l0.033-0.034h784.187c17.826 0 32.269 14.477 32.269 32.307v510.157c-0.102 6.46-2.142 12.741-5.854 18.027v-0.066zM136.093 740.829c-4.798 3.355-10.418 5.341-16.259 5.747s-11.681-0.786-16.896-3.446c-5.216-2.66-9.609-6.689-12.71-11.654s-4.793-10.682-4.894-16.535v-511.113l377.092 308.898-326.3 228.17z" />
<glyph unicode="&#xe910;" glyph-name="capsule" d="M49.202 165.79h116.362v73.007h148.469v-73.007h116.363v561.36h-381.193v-561.36zM634.082 883.594c-17.587 0-31.902-14.315-31.902-31.902s14.315-31.902 31.902-31.902c17.587 0 31.902 14.315 31.902 31.902s-14.315 31.902-31.902 31.902zM634.082 736.558c-17.587 0-31.902-14.315-31.902-31.902s14.315-31.903 31.902-31.903c17.587 0 31.902 14.316 31.902 31.903s-14.315 31.902-31.902 31.902zM634.082 589.521c-17.587 0-31.902-14.315-31.902-31.902s14.315-31.902 31.902-31.902c17.587 0 31.902 14.315 31.902 31.902s-14.315 31.902-31.902 31.902zM783.97 883.594c-17.587 0-31.902-14.315-31.902-31.902s14.315-31.902 31.902-31.902c17.587 0 31.902 14.315 31.902 31.902s-14.315 31.902-31.902 31.902zM783.97 736.558c-17.587 0-31.902-14.315-31.902-31.902s14.315-31.903 31.902-31.903c17.587 0 31.902 14.316 31.902 31.903s-14.315 31.902-31.902 31.902zM783.97 589.521c-17.587 0-31.902-14.315-31.902-31.902s14.315-31.902 31.902-31.902c17.587 0 31.902 14.315 31.902 31.902s-14.315 31.902-31.902 31.902zM931.213 883.594c-17.587 0-31.902-14.315-31.902-31.902s14.315-31.902 31.902-31.902c17.587 0 31.902 14.315 31.902 31.902 0.205 17.587-14.11 31.902-31.902 31.902zM931.213 736.558c-17.587 0-31.902-14.315-31.902-31.902s14.315-31.903 31.902-31.903c17.587 0 31.902 14.316 31.902 31.903 0.205 17.587-14.11 31.902-31.902 31.902zM931.213 589.521c-17.587 0-31.902-14.315-31.902-31.902s14.315-31.902 31.902-31.902c17.587 0 31.902 14.315 31.902 31.902s-14.11 31.902-31.902 31.902zM244.104 361.088c-105.319 2.453-192.846-80.981-195.3-186.304-2.454-105.318 80.983-192.845 186.301-195.298s192.837 80.986 195.29 186.304c2.658 105.318-80.768 192.845-186.292 195.298zM303.41 101.982h-127.61v127.612h127.61v-127.612zM430.349 715.793c2.466 105.345-80.934 192.742-186.279 195.206s-192.742-80.937-195.206-186.281c-2.465-105.345 80.936-192.741 186.281-195.207 105.345-2.462 192.742 80.937 195.204 186.282zM586.641 397.286v-393.259h393.259v393.259h-393.259zM899.942 112.004h-233.34v48.67h233.34v-48.67zM899.942 240.841h-233.34v48.67h233.34v-48.67z" />
<glyph unicode="&#xe911;" glyph-name="category" d="M475.733 814.937l-158.72-259.413c-17.493-28.159 2.987-64.852 36.267-64.852h317.013c33.28 0 53.76 36.693 36.267 64.852l-158.293 259.413c-16.64 27.307-55.893 27.307-72.533 0zM746.667 21.333c106.039 0 192 85.961 192 192s-85.961 192-192 192c-106.039 0-192-85.961-192-192s85.961-192 192-192zM170.667 42.667h256c23.467 0 42.667 19.2 42.667 42.667v256c0 23.467-19.2 42.667-42.667 42.667h-256c-23.467 0-42.667-19.2-42.667-42.667v-256c0-23.467 19.2-42.667 42.667-42.667z" />
<glyph unicode="&#xe912;" glyph-name="check-box" d="M810.667 832h-597.333c-46.933 0-85.333-38.4-85.333-85.333v-597.333c0-46.933 38.4-85.333 85.333-85.333h597.333c46.933 0 85.333 38.4 85.333 85.333v597.333c0 46.933-38.4 85.333-85.333 85.333zM456.96 264.96c-16.64-16.64-43.52-16.64-60.16 0l-153.173 153.173c-16.64 16.64-16.64 43.52 0 60.16s43.52 16.64 60.16 0l122.88-122.88 293.547 293.547c16.64 16.64 43.52 16.64 60.16 0s16.64-43.52 0-60.16l-323.413-323.84z" />
<glyph unicode="&#xe913;" glyph-name="chevron" d="M512 423.006l183.164 183.164c16.661 16.662 43.678 16.662 60.339 0s16.661-43.677 0-60.34l-243.503-243.503-243.503 243.503c-16.662 16.663-16.662 43.677 0 60.34s43.677 16.662 60.34 0l183.163-183.164z" />
<glyph unicode="&#xe914;" glyph-name="clever-reach" d="M942.289 653.012l-340.727 49.844c-10.594 1.178-21.269 1.447-31.91 0.804 2.705-2.381 4.732-5.431 5.875-8.843l43.426-154.24c3.802-13.439-16.7-31.124-46.076-39.278l-485.517-132.416c-14.435-4.527-29.661-5.973-44.693-4.25 1.037-8.96 10.252-16.883 27.53-21.133l472.271-118.985c41.468-10.449 92.151 0 111.044 22.281l325.406 380.835c8.986 9.877-7.949 21.132-36.629 25.381zM44.207 380.821c-9.128-6.029 24.381-4.753 46.22 1.276l462.204 126.921c28.309 7.765 47.953 24.69 44.254 37.672l-41.365 147.786c-4.39 9.041-7.049 11.591-12.71 7.882-231.449-147.438-400.384-257.668-498.603-321.536z" />
<glyph unicode="&#xe915;" glyph-name="cog" d="M588.247 797.648c12.539-51.638 71.7-76.143 117.074-48.494 70.246 42.802 150.636-37.585 107.832-107.831-27.648-45.378-3.144-104.539 48.497-117.075 79.933-19.406 79.933-133.090 0-152.495-51.64-12.539-76.145-71.7-48.497-117.074 42.803-70.246-37.586-150.636-107.832-107.832-45.373 27.648-104.535 3.144-117.074-48.497-19.405-79.933-133.089-79.933-152.495 0-12.536 51.64-71.697 76.145-117.074 48.497-70.246-42.803-150.633 37.586-107.831 107.832 27.649 45.373 3.144 104.535-48.494 117.074-79.936 19.405-79.936 133.089 0 152.495 51.638 12.536 76.143 71.697 48.494 117.075-42.802 70.245 37.585 150.632 107.831 107.831 45.378-27.649 104.539-3.144 117.075 48.494 19.406 79.936 133.090 79.936 152.495 0zM512 294.4c84.833 0 153.6 68.767 153.6 153.6 0 84.831-68.767 153.6-153.6 153.6-84.831 0-153.6-68.769-153.6-153.6 0-84.833 68.769-153.6 153.6-153.6z" />
<glyph unicode="&#xe916;" glyph-name="color-pallet" d="M512 832c-212.053 0-384-171.947-384-384s171.947-384 384-384c35.413 0 64 28.587 64 64 0 16.64-6.4 31.573-16.64 43.093-9.813 11.093-16.213 26.027-16.213 42.24 0 35.413 28.587 64 64 64h75.52c117.76 0 213.333 95.573 213.333 213.333 0 188.587-171.947 341.333-384 341.333zM277.333 448c-35.413 0-64 28.587-64 64s28.587 64 64 64c35.413 0 64-28.587 64-64s-28.587-64-64-64zM405.333 618.667c-35.413 0-64 28.587-64 64s28.587 64 64 64c35.413 0 64-28.587 64-64s-28.587-64-64-64zM618.667 618.667c-35.413 0-64 28.587-64 64s28.587 64 64 64c35.413 0 64-28.587 64-64s-28.587-64-64-64zM746.667 448c-35.413 0-64 28.587-64 64s28.587 64 64 64c35.413 0 64-28.587 64-64s-28.587-64-64-64z" />
<glyph unicode="&#xe917;" glyph-name="consent" d="M256 874.667c-46.933 0-84.907-38.4-84.907-85.333l-0.427-682.667c0-46.933 37.973-85.333 84.907-85.333h512.427c46.933 0 85.333 38.4 85.333 85.333v476.587c0 22.613-8.96 44.373-25.173 60.16l-206.080 206.080c-15.787 16.213-37.547 25.173-60.16 25.173h-305.92zM554.667 618.667v192l234.667-234.667h-192c-23.467 0-42.667 19.2-42.667 42.667z" />
<glyph unicode="&#xe918;" glyph-name="constant-contact" d="M492.8 448c34.453 8.913 69.342 16.034 104.533 21.333l46.507 5.547c9.869 37.897 21.833 75.216 35.84 111.787h-4.693c-48.452-9.205-96.213-21.751-142.933-37.547-14.818-33.007-27.921-66.761-39.253-101.12zM367.787 498.773c16.213 30.72 32.427 61.44 50.347 91.307-27.733-15.787-55.467-32.853-82.347-51.2-20.48-29.867-39.68-60.587-57.173-91.733 29.013 18.773 58.88 36.267 88.747 51.627zM471.893 442.88c10.667 32.853 23.040 65.707 36.693 98.133-43.81-15.735-86.563-34.261-128-55.467-14.080-29.013-26.453-58.453-37.973-87.893 41.553 18.176 84.322 33.429 128 45.653zM672.427 604.16l15.36 2.56c15.39 38.214 32.913 75.534 52.48 111.787-47.637-11.268-94.524-25.519-140.373-42.667-20.924-33.644-40.009-68.397-57.173-104.107 41.967 13.518 84.71 24.489 128 32.853zM199.68 320c8.96 23.893 19.2 48.213 30.72 72.533-19.2-14.080-37.973-29.013-55.893-42.667-16.213-29.867-31.147-55.893-46.507-82.773 22.613 18.347 46.080 35.84 69.973 52.053zM320.427 386.987c10.24 28.16 21.333 56.32 34.133 85.333-32.244-17.754-63.573-37.12-93.867-58.027-12.8-25.6-24.747-51.627-35.413-77.653 30.7 18.633 62.471 35.447 95.147 50.347zM663.467 477.013c55.945 4.523 112.162 4.523 168.107 0 12.8 42.667 26.027 85.333 42.667 128h-7.253c-55.031-0.15-109.965-4.716-164.267-13.653-14.558-37.226-26.953-75.264-37.12-113.92zM864.853 622.507h14.507c16.717 42.777 36.54 84.274 59.307 124.16-58.854-2.492-117.38-10.058-174.933-22.613-20.681-36.866-39.202-74.903-55.467-113.92 51.678 7.904 103.881 11.898 156.16 11.947zM460.8 325.973c20.907 3.413 42.667 6.4 62.72 8.533 31.573 3.413 63.573 5.12 96.427 5.973 4.194 39.074 10.893 77.837 20.053 116.053l-39.68-5.12c-38.391-5.645-76.425-13.478-113.92-23.467-10.415-33.493-18.961-67.533-25.6-101.973zM170.667 221.867c5.547 22.187 12.373 45.227 20.053 67.84-27.93-19.486-54.713-40.572-80.213-63.147-9.387-21.333-17.92-42.667-25.173-62.72 27.031 21.342 55.547 40.734 85.333 58.027zM441.6 322.56c6.135 33.69 14.114 67.021 23.893 99.84-44.644-13.018-88.279-29.278-130.56-48.64-10.24-29.013-18.773-58.027-25.6-85.333 43.142 15.095 87.354 26.931 132.267 35.413z" />
<glyph unicode="&#xe919;" glyph-name="coupon" d="M411.307 634.030c12.373 26.453 17.92 56.747 14.506 89.173-8.107 73.813-65.706 136.533-139.093 148.907-118.187 20.48-219.307-80.64-198.827-198.4 12.8-73.387 75.093-130.987 148.907-139.093 32.427-3.412 62.293 2.133 89.173 14.507l100.693-101.119-100.693-100.693c-26.453 12.373-56.747 17.92-89.173 14.507-73.813-8.107-136.533-65.707-148.907-139.093-20.48-118.187 80.64-218.88 198.4-198.4 73.387 12.8 130.987 75.093 139.093 148.907 3.413 32.427-2.133 62.293-14.507 89.173l101.12 100.267 323.84-323.84c37.973-37.973 102.827-11.093 102.827 42.667v0.427c0 15.787-6.4 31.147-17.493 42.667l-509.866 509.439zM256 618.67c-46.933 0-85.333 37.973-85.333 85.333s38.4 85.333 85.333 85.333c46.933 0 85.333-37.973 85.333-85.333s-38.4-85.333-85.333-85.333zM256 106.671c-46.933 0-85.333 37.973-85.333 85.333s38.4 85.333 85.333 85.333c46.933 0 85.333-37.973 85.333-85.333s-38.4-85.333-85.333-85.333zM512 426.671c-11.947 0-21.333 9.387-21.333 21.333s9.387 21.333 21.333 21.333c11.947 0 21.333-9.387 21.333-21.333s-9.387-21.333-21.333-21.333zM835.84 857.177l-281.173-281.173 85.333-85.332 281.173 281.172c11.093 11.093 17.493 26.453 17.493 42.667v0.427c0 53.333-64.853 80.213-102.827 42.24z" />
<glyph unicode="&#xe91a;" glyph-name="chained-selects" d="M512 749.705l-90.511-90.51c-16.593-16.593-16.593-43.746 0-60.34 16.595-16.593 43.748-16.593 60.341 0l90.509 90.51c49.779 49.78 131.238 49.78 181.018 0 49.783-49.78 49.783-131.239 0-181.021l-90.509-90.509c-16.593-16.593-16.593-43.746 0-60.339s43.746-16.593 60.339 0l90.509 90.509c83.273 83.268 83.273 218.432 0 301.7-83.268 83.269-218.428 83.269-301.696 0zM391.319 327.326c16.593-16.593 43.748-16.593 60.341 0l181.018 181.018c16.593 16.597 16.593 43.748 0 60.342s-43.746 16.593-60.339 0l-181.020-181.020c-16.593-16.593-16.593-43.746 0-60.339zM542.17 297.156l-90.509-90.509c-49.782-49.779-131.241-49.779-181.021 0s-49.78 131.238 0 181.018l90.51 90.509c16.593 16.593 16.593 43.746 0 60.341-16.593 16.593-43.747 16.593-60.34 0l-90.51-90.511c-83.269-83.268-83.269-218.428 0-301.696s218.432-83.268 301.7 0l90.509 90.509c16.593 16.593 16.593 43.746 0 60.339s-43.746 16.593-60.339 0z" />
<glyph unicode="&#xe91b;" glyph-name="coupon-alt" d="M853.342 405.333c0 46.933 38.4 85.333 85.333 85.333v170.667c0 46.933-38.4 85.333-85.333 85.333h-682.669c-46.933 0-84.907-38.4-84.907-85.333v-170.667c46.933 0 84.907-38.4 84.907-85.333s-37.973-85.333-85.333-85.333v-170.667c0-46.933 38.4-85.333 85.333-85.333h682.669c46.933 0 85.333 38.4 85.333 85.333v170.667c-46.933 0-85.333 38.4-85.333 85.333zM664.755 200.533l-152.747 98.133-152.749-98.133 46.080 175.787-140.373 114.773 180.909 10.667 66.133 168.107 65.707-168.533 180.907-10.667-140.373-114.773 46.507-175.36z" />
<glyph unicode="&#xe91c;" glyph-name="create" d="M128 215.036v-129.707c0-11.947 9.387-21.333 21.333-21.333h129.707c5.547 0 11.093 2.133 14.933 6.4l465.92 465.495-160 160-465.493-465.495c-4.267-4.267-6.4-9.387-6.4-15.36zM883.627 659.624c16.64 16.64 16.64 43.52 0 60.16l-99.84 99.84c-16.64 16.64-43.52 16.64-60.16 0l-78.080-78.080 160-160 78.080 78.080z" />
<glyph unicode="&#xe91d;" glyph-name="date" d="M810.667 789.333h-42.667v42.667c0 23.467-19.2 42.667-42.667 42.667s-42.667-19.2-42.667-42.667v-42.667h-341.333v42.667c0 23.467-19.2 42.667-42.667 42.667s-42.667-19.2-42.667-42.667v-42.667h-42.667c-47.36 0-84.907-38.4-84.907-85.333l-0.427-597.333c0-46.933 37.973-85.333 85.333-85.333h597.333c46.933 0 85.333 38.4 85.333 85.333v597.333c0 46.933-38.4 85.333-85.333 85.333zM810.667 149.333c0-23.467-19.2-42.667-42.667-42.667h-512c-23.467 0-42.667 19.2-42.667 42.667v426.667h597.333v-426.667zM298.667 490.667h85.333v-85.333h-85.333v85.333zM469.333 490.667h85.333v-85.333h-85.333v85.333zM640 490.667h85.333v-85.333h-85.333v85.333z" />
<glyph unicode="&#xe91e;" glyph-name="delete" d="M682.705 618.624c-15.71 15.709-41.178 15.709-56.887 0l-113.818-113.818-113.818 113.818c-15.709 15.709-41.179 15.709-56.889 0s-15.709-41.179 0-56.889l113.819-113.816-113.739-113.741c-15.709-15.71-15.709-41.178 0-56.887s41.179-15.71 56.889 0l113.738 113.737 113.737-113.737c15.71-15.71 41.182-15.71 56.892 0 15.706 15.71 15.706 41.178 0 56.887l-113.741 113.741 113.818 113.816c15.71 15.709 15.71 41.179 0 56.889z" />
<glyph unicode="&#xe91f;" glyph-name="dollar" d="M503.467 494.933c-96.853 25.173-128 51.2-128 91.733 0 46.507 43.093 78.933 115.2 78.933 60.587 0 90.88-23.040 101.973-59.733 5.12-17.067 19.2-29.867 37.12-29.867h12.8c28.16 0 48.213 27.733 38.4 54.187-17.92 50.347-59.733 92.16-126.293 108.373v29.44c0 35.413-28.587 64-64 64s-64-28.587-64-64v-28.16c-82.773-17.92-149.333-71.68-149.333-154.027 0-98.56 81.493-147.627 200.533-176.213 106.667-25.6 128-63.147 128-102.827 0-29.44-20.907-76.373-115.2-76.373-70.4 0-106.667 25.173-120.747 61.013-6.4 16.64-20.907 28.587-38.4 28.587h-11.947c-28.587 0-48.64-29.013-37.973-55.467 24.32-59.307 81.067-94.293 145.067-107.947v-28.587c0-35.413 28.587-64 64-64s64 28.587 64 64v27.733c83.2 15.787 149.333 64 149.333 151.467 0 121.173-103.68 162.56-200.533 187.733z" />
<glyph unicode="&#xe920;" glyph-name="drag" d="M298.667 576c0 23.564 19.103 42.667 42.667 42.667h341.333c23.565 0 42.667-19.103 42.667-42.667s-19.102-42.667-42.667-42.667h-341.333c-23.564 0-42.667 19.103-42.667 42.667zM298.667 320c0 23.565 19.103 42.667 42.667 42.667h341.333c23.565 0 42.667-19.102 42.667-42.667s-19.102-42.667-42.667-42.667h-341.333c-23.564 0-42.667 19.102-42.667 42.667z" />
<glyph unicode="&#xe921;" glyph-name="drag-indicator" d="M341.333 704.010c0 23.564 19.103 42.667 42.667 42.667v0c23.564 0 42.667-19.102 42.667-42.667v0c0-23.564-19.103-42.667-42.667-42.667v0c-23.564 0-42.667 19.103-42.667 42.667v0zM341.333 448.009c0 23.565 19.103 42.667 42.667 42.667v0c23.564 0 42.667-19.102 42.667-42.667v0c0-23.561-19.103-42.667-42.667-42.667v0c-23.564 0-42.667 19.106-42.667 42.667v0zM341.333 192.009c0 23.565 19.103 42.667 42.667 42.667v0c23.564 0 42.667-19.102 42.667-42.667v0c0-23.561-19.103-42.667-42.667-42.667v0c-23.564 0-42.667 19.106-42.667 42.667v0zM597.333 704.010c0 23.564 19.102 42.667 42.667 42.667v0c23.565 0 42.667-19.102 42.667-42.667v0c0-23.564-19.102-42.667-42.667-42.667v0c-23.565 0-42.667 19.103-42.667 42.667v0zM597.333 448.009c0 23.565 19.102 42.667 42.667 42.667v0c23.565 0 42.667-19.102 42.667-42.667v0c0-23.561-19.102-42.667-42.667-42.667v0c-23.565 0-42.667 19.106-42.667 42.667v0zM597.333 192.009c0 23.565 19.102 42.667 42.667 42.667v0c23.565 0 42.667-19.102 42.667-42.667v0c0-23.561-19.102-42.667-42.667-42.667v0c-23.565 0-42.667 19.106-42.667 42.667v0z" />
<glyph unicode="&#xe922;" glyph-name="dropbox" d="M697.532 173.094l-185.532 138.833-181.704-138.726-105.6 61.589v-67.191l287.304-188.932 287.991 187.639v67.371l-102.46-60.582zM981.333 700.315l-277.052 174.352-192.282-157.294 287.556-166.272 181.777 149.214zM42.667 397.577l285.066-166.272 184.268 140.706-273.008 172.734-196.326-147.168zM327.732 874.667l-285.066-182.899 196.326-147.023 273.008 172.628-184.268 157.294zM512 372.011l187.985-140.706 281.348 166.272-181.777 153.524-287.556-179.090z" />
<glyph unicode="&#xe923;" glyph-name="dropdown" d="M739.554 182.519h-455.11c-20.859 0-37.926 17.067-37.926 37.926v455.11c0 20.859 17.067 37.926 37.926 37.926h455.11c20.86 0 37.926-17.067 37.926-37.926v-455.11c0-20.86-17.067-37.926-37.926-37.926zM777.481 789.333h-530.962c-41.719 0-75.852-34.133-75.852-75.852v-530.962c0-41.719 34.133-75.853 75.852-75.853h530.962c41.719 0 75.853 34.133 75.853 75.853v530.962c0 41.719-34.133 75.852-75.853 75.852zM394.57 469.786l92.337-96.247c13.905-14.494 36.365-14.494 50.27 0l92.339 96.247c22.464 23.411 6.417 63.548-25.314 63.548h-184.676c-31.73 0-47.417-40.137-24.956-63.548z" />
<glyph unicode="&#xe924;" glyph-name="duplicate" d="M896 725.333h-597.333c-11.782 0-21.333-9.551-21.333-21.333v-597.333c0-11.78 9.551-21.333 21.333-21.333h597.333c11.78 0 21.333 9.553 21.333 21.333v597.333c0 11.782-9.553 21.333-21.333 21.333zM298.667 789.333h597.333c47.13 0 85.333-38.205 85.333-85.333v-597.333c0-47.13-38.204-85.333-85.333-85.333h-597.333c-47.128 0-85.333 38.204-85.333 85.333v597.333c0 47.128 38.205 85.333 85.333 85.333zM469.333 746.667l-213.333-213.333v213.333h213.333zM565.333 437.333v138.667h64v-138.667h138.667v-64h-138.667v-138.667h-64v138.667h-138.667v64h138.667zM117.333 362.667v426.667c0 53.062 42.894 96 95.871 96h512.129v64h-512.129c-88.407 0-159.871-71.677-159.871-160v-426.667h64z" />
<glyph unicode="&#xe925;" glyph-name="ellipsis" d="M597.333 106.667c0 47.13-38.204 85.333-85.333 85.333s-85.333-38.204-85.333-85.333c0-47.13 38.204-85.333 85.333-85.333s85.333 38.204 85.333 85.333zM597.333 490.667c0 47.128-38.204 85.333-85.333 85.333s-85.333-38.205-85.333-85.333c0-47.13 38.204-85.333 85.333-85.333s85.333 38.204 85.333 85.333zM512 960c47.13 0 85.333-38.205 85.333-85.333s-38.204-85.333-85.333-85.333c-47.13 0-85.333 38.205-85.333 85.333s38.204 85.333 85.333 85.333z" />
<glyph unicode="&#xe926;" glyph-name="email-octopus" d="M972.109 164.083l-0.226 0.085c12.297-12.356 12.297-32.294 0-44.595-38.741-38.741-91.772-63.138-150.366-64.759l-12.13-0.085v0.085c-119.437 3.298-215.578 101.402-215.578 221.547l-0.085 64.474h-0.085c0 3.379-2.645 6.080-6.050 6.080-3.354 0-6.025-2.726-6.025-6.135l-0.055-64.474c0-128.896 104.951-233.758 233.899-233.758 17.613 0 31.812-14.289 31.812-31.898 0-17.613-14.199-31.898-31.812-31.898-163.968 0.030-297.353 133.325-297.579 297.267v64.759h0.055c0 3.349-2.697 6.076-6.106 6.076-3.349 0-6.135-2.697-6.135-6.106v-64.815c-0.141-163.942-133.551-297.297-297.521-297.297-17.61 0-31.897 14.204-31.897 31.812 0 17.583 14.315 31.868 31.925 31.868 128.95 0.030 233.758 104.922 233.758 233.873v64.559c0 3.354-2.671 6.080-6.080 6.080-3.349 0-6.106-2.726-6.106-6.080v-64.444c0-120.145-96.144-218.193-215.579-221.547v-0.141h-12.156v0.111c-58.568 1.621-111.568 26.018-150.366 64.759v-0.055c-12.299 12.326-12.299 32.265 0 44.591 12.299 12.301 32.266 12.301 44.593 0 28.687-28.715 68.168-46.524 111.909-46.524 87.027 0 157.921 70.839 157.921 157.922v65.327c0 3.354-2.698 6.080-6.050 6.080s-6.078-2.726-6.078-6.080v-65.212c0-80.38-65.384-145.711-145.765-145.711s-145.708 65.331-145.708 145.711c0 17.638 14.202 31.923 31.811 31.923 17.638 0 31.953-14.315 31.953-31.923 0-45.163 36.782-81.916 81.943-81.916 45.19 0 81.943 36.753 81.943 81.916h0.113v65.271c0 3.349-2.726 6.076-6.078 6.076s-6.050-2.726-6.050-6.076v-65.271c0-38.571-31.328-69.871-69.872-69.871-38.628 0-69.872 31.3-69.872 69.871v31.923c0 17.613 14.287 31.868 31.897 31.868s32.039-14.255 32.039-31.868v-31.923c0-3.354 2.727-6.080 6.078-6.080s6.078 2.701 6.078 6.106v344.163c0 164.397 133.239 297.608 297.578 297.608 164.343 0 297.553-133.211 297.468-297.608l-0.055-344.188c0-3.354 2.726-6.080 6.076-6.080 3.409 0 6.251 2.726 6.251 6.080v31.923c0 17.613 14.285 31.868 31.898 31.868 17.609 0 31.868-14.255 31.868-31.868v-31.923c0-38.571-31.275-69.871-69.815-69.871-38.63 0-69.871 31.3-69.871 69.871v65.271h0.055c0 3.349-2.726 6.076-6.080 6.076-3.349 0-6.076-2.726-6.076-6.076l-0.055-65.271h0.055c0-45.188 36.783-81.916 81.941-81.916 45.188 0 81.946 36.753 81.946 81.916 0 17.638 14.4 31.923 32.009 31.923s31.927-14.315 31.927-31.923c0-80.38-65.331-145.766-145.711-145.766-80.35 0-145.762 65.387-145.762 145.766v65.271h0.055c0 3.349-2.842 6.076-6.251 6.076-3.349 0-6.076-2.726-6.076-6.076l-0.060-65.331c0-87.083 70.869-157.918 157.922-157.918 43.686 0 83.221 17.835 111.851 46.524l0.060-0.060v0.060c12.271 12.297 32.235 12.297 44.535 0zM335.229 673.067c0-18.831 15.252-34.083 34.084-34.083s34.084 15.252 34.084 34.083c0 18.831-15.252 34.084-34.084 34.084s-34.084-15.252-34.084-34.084zM654.707 638.984c18.833 0 34.082 15.252 34.082 34.083s-15.249 34.084-34.082 34.084c-18.829 0-34.082-15.252-34.082-34.084s15.253-34.083 34.082-34.083z" />
<glyph unicode="&#xe927;" glyph-name="embed" d="M96 746.667c0 64.801 52.532 117.333 117.333 117.333h597.333c64.802 0 117.333-52.532 117.333-117.333v-597.333c0-64.802-52.531-117.333-117.333-117.333h-597.333c-64.801 0-117.333 52.531-117.333 117.333v597.333zM213.333 800c-29.455 0-53.333-23.878-53.333-53.333v-597.333c0-29.457 23.878-53.333 53.333-53.333h597.333c29.457 0 53.333 23.876 53.333 53.333v597.333c0 29.455-23.876 53.333-53.333 53.333h-597.333zM342.916 446.993l106.377 106.38-45.254 45.255-149.622-149.62 148.618-162.773 47.264 43.153-107.383 117.606zM619.959 598.627l149.623-149.62-148.617-162.773-47.266 43.153 107.383 117.606-106.377 106.38 45.252 45.255z" />
<glyph unicode="&#xe928;" glyph-name="emma" d="M512-21.333c-258.831 0-469.333 210.56-469.333 469.38s210.503 469.286 469.333 469.286c258.829 0 469.333-210.56 469.333-469.286s-210.505-469.38-469.333-469.38zM512 882.474c-239.685 0-434.668-194.912-434.668-434.427 0-239.518 195.168-434.428 434.668-434.428s434.761 194.91 434.761 434.428c0 239.516-195.076 434.427-434.761 434.427zM751.087 385.626c3.661 33.762 11.537 45.303 25.041 47.689l1.126 15.45c-38.071 7.757-76.809 11.652-115.635 11.635-64.713 0-103.164-23.078-130.27-23.078-27.102 0-65.647 23.078-130.266 23.078-19.508 0-31.325-0.858-46.893-2.099-2.345-7.057-4.877-14.878-7.409-23.556 10.973 6.391 22.415 10.492 50.081 10.492 112.543 0 95.097-43.968 90.971-60.847-4.126-16.883-16.691-64.567-92.19-64.567-43.798 0-58.897 27.469-64.055 58.274 0 1.237 0 2.479-0.563 3.716-3.095-9.536-6.19-18.121-9.378-26.415 7.971-26.513 28.135-51.405 75.684-51.597 86.376 0 103.724 54.839 113.013 79.731 9.284 24.892 5.999 28.036 20.817 28.608 14.818 0.576 12.382-4.194 21.197-27.942s26.261-80.111 112.542-80.111c73.246 0.192 83.281 51.785 86.187 81.54zM666.684 320.205c-75.593 0-87.689 47.684-91.819 64.661-4.126 16.973-26.163 61.133 86.473 61.133 86.187 0 78.404-39.676 75.025-64.474-1.506-17.421-9.621-33.566-22.626-45.009-13.005-11.447-29.884-17.297-47.053-16.311zM309.737 323.443c-18.757-37.385-28.605-44.058-45.486-54.455 0.416-8.102-2.289-16.051-7.542-22.161-5.253-6.106-12.64-9.89-20.593-10.551-13.786-1.621-23.728 8.491-30.574 13.449-0.759 0.482-1.637 0.738-2.532 0.738s-1.772-0.256-2.532-0.738c-0.656-0.683-1.074-1.566-1.193-2.513-0.118-0.943 0.070-1.903 0.536-2.731 2.69-5.278 6.031-10.18 9.941-14.592 5.532-6.515 11.832-12.314 18.757-17.263 11.808-8.674 26.15-13.043 40.703-12.399 9.549 0.375 18.89 2.948 27.321 7.522 8.431 4.578 15.732 11.038 21.353 18.897 8.347 11.435 12.554 25.446 11.911 39.671-0.751 15.735-5.158 30.042-20.070 57.126zM572.898 640.554c-12.476 22.985-42.206 46.828-89.754 51.31-18.061 0.713-36.139-0.824-53.833-4.578-33.649-6.923-64.96-22.597-90.877-45.492-44.867-41.434-72.113-99.002-75.966-160.51-3.845-47.684 2.251-102.238-24.759-143.057-9.379-14.972-21.289-27.657-59.835-26.227-1.157 0.303-2.363 0.354-3.541 0.158s-2.304-0.64-3.305-1.301c-0.399-1.097-0.47-2.291-0.203-3.426 0.267-1.139 0.86-2.167 1.703-2.965 25.603-34.236 104.101-81.161 152.026 103.479 15.756 60.561 18.757 66.761 35.919 85.833 18.757 21.269 66.683 31.949 85.252 35.29 22.507 4.1 63.774 6.293 92.941 19.073 8.721 3.523 16.661 8.791 23.347 15.491s11.981 14.697 15.573 23.516c2.761 8.77 3.767 18.013 2.961 27.185s-3.405 18.088-7.65 26.222zM851.157 264.794c-0.747-0.009-1.481-0.201-2.138-0.567-0.653-0.367-1.207-0.892-1.613-1.532-4.557-5.713-10.5-10.116-17.246-12.779-6.746-2.658-14.054-3.482-21.205-2.385-7.765 1.545-14.912 5.385-20.548 11.029-5.636 5.649-9.515 12.855-11.153 20.727-4.783 41.203 13.504 75.153 30.106 116.638 6.903 18.573 12.207 37.722 15.851 57.225 16.691 84.785-29.073 174.339-59.648 215.253-84.407 112.442-233.993 119.5-277.414 120.931h-2.628c-10.692-1.526 8.909-8.965 19.601-18.216 5.645-4.090 10.402-9.317 13.973-15.355 4.032-7.535 4.971-15.832-2.249-11.731-14.259 8.076-29.935 13.228-46.144 15.164-21.069 3.053-42.493 2.537-63.398-1.526-21.736-3.219-42.676-10.598-61.711-21.745-29.411-14.703-55.088-36.114-75.028-62.563-35.941-46.841-53.608-105.527-49.612-164.801 3.282-46.541 13.224-77.252 26.729-129.229 2.507 23.595 3.54 47.326 3.095 71.053 0 13.922 0.563 27.085 1.594 39.292 5.908 72.483 31.887 119.5 65.087 155.551 18.97 19.934 41.67 35.807 66.764 46.682s52.074 16.535 79.355 16.644c15.74 0.639 31.501-0.771 46.891-4.196 32.917-9.537 93.786-38.816 85.999-109.868-1.105-4.797-0.674-9.83 1.233-14.36s5.188-8.321 9.365-10.818c33.105-23.557 110.669-20.123 133.269-93.557l1.033-3.149c0.751-2.479 0.657-1.907 1.314-4.198 14.575-1.98 29.039-4.753 43.328-8.294l7.689-1.719-0.563-9.536-1.122-15.45v-7.437l-6.942-1.621c-4.783-0.956-14.161-6.012-17.536-39.484-0.99-20.39-6.848-40.23-17.071-57.796-5.107-8.367-12.331-15.185-20.915-19.742-14.067-76.297 39.484-101.286 74.185-96.324 13.018 1.246 25.225 6.972 34.603 16.235 9.382 9.259 15.373 21.5 16.981 34.692 0.077 0.67-0.102 1.344-0.508 1.877-0.401 0.538-0.994 0.887-1.651 0.986zM460.356 384.58c4.595-6.199 12.753 2.287 8.158 8.393-30.575 40.627-83.843 26.607-117.137 3.337-9.379-6.391-4.314-17.455 5.721-13.35l2.438 1.237c9.379 5.342 19.414 11.827 30.105 16.785-1.914-3.567-2.914-7.569-2.907-11.635 0-6.903 2.697-13.525 7.499-18.411 4.801-4.881 11.314-7.625 18.104-7.625s13.303 2.743 18.105 7.625c4.8 4.885 7.497 11.507 7.497 18.411 0 3.413-0.7 6.784-2.057 9.907-1.357 3.119-3.341 5.918-5.82 8.213 12.48-3.669 23.236-11.797 30.293-22.886zM411.306 383.625c-1.178 0.038-2.32 0.427-3.282 1.122-0.962 0.691-1.702 1.655-2.128 2.773s-0.518 2.342-0.265 3.511c0.252 1.173 0.838 2.24 1.684 3.076 0.847 0.832 1.916 1.395 3.075 1.617s2.356 0.090 3.441-0.38c1.086-0.465 2.013-1.246 2.664-2.249 0.652-0.998 1-2.167 1-3.366-0.048-1.596-0.699-3.11-1.817-4.228-1.118-1.122-2.617-1.758-4.186-1.783l-0.187-0.094zM711.138 396.215c-33.391 23.364-86.754 36.907-117.419-3.721-4.689-6.106 4.407-14.020 8.909-7.629 6.921 11.358 17.865 19.588 30.575 22.985-2.79-2.304-5.039-5.214-6.579-8.512-1.545-3.302-2.338-6.912-2.334-10.564 0-6.903 2.701-13.53 7.501-18.411s11.315-7.625 18.103-7.625c6.793 0 13.303 2.743 18.103 7.625 4.804 4.881 7.501 11.507 7.501 18.411-0.004 4.177-1.071 8.286-3.093 11.921 10.688-5.15 21.005-11.729 30.289-17.071l2.441-1.242c9.941-4.1 15.287 7.347 6.003 13.833zM651.302 383.339c-1.237-0.038-2.453 0.303-3.499 0.973-1.045 0.674-1.869 1.647-2.364 2.799-0.491 1.152-0.636 2.428-0.41 3.665 0.222 1.237 0.806 2.377 1.673 3.273 0.87 0.896 1.98 1.506 3.191 1.754s2.47 0.119 3.61-0.363c1.139-0.486 2.112-1.31 2.79-2.359 0.674-1.050 1.028-2.287 1.011-3.541 0-1.638-0.627-3.209-1.749-4.386-1.118-1.173-2.645-1.86-4.254-1.907v0.094zM576.93 227.503c5.628 5.815-1.314 12.587-7.317 7.821-28.134-22.127-42.014-21.269-73.152-3.149-7.125 4.1-12.659-4.006-6.093-8.585 30.195-24.606 58.615-24.794 86.562 3.913zM587.247 141.952c-14.537-6.195-35.264-16.115-54.114-16.209-18.85-0.098-39.671 10.108-54.020 16.209-5.534 2.385-6.566-3.145-3.844-5.338 11.814-8.393 38.357-29.948 57.771-29.948s46.891 21.457 58.052 29.948c3.281 2.573 1.596 7.723-3.844 5.338zM611.443 167.322c-5.295-2.167-10.991-3.145-16.695-2.859-13.777 0-27.473 2.155-40.606 6.387-5.628 1.434-15.006-6.959-20.352-6.959s-14.818 8.393-20.54 6.959c-13.286-4.279-27.145-6.434-41.079-6.387-5.7-0.29-11.396 0.687-16.691 2.859-4.22 1.621-6.66-2.287-4.032-4.578 6.716-5.009 14.281-8.73 22.319-10.965 19.371-5.525 39.347-8.538 59.46-8.964 20.356 0.469 40.576 3.482 60.211 8.964 8.068 2.227 15.667 5.943 22.413 10.965 2.159 2.291-0.188 6.199-4.407 4.578z" />
<glyph unicode="&#xe929;" glyph-name="entries" d="M192 533.333v-149.333h298.667v149.333h-298.667zM554.667 533.333v-149.333h277.333v149.333h-277.333zM832 597.333v149.333c0 11.782-9.553 21.333-21.333 21.333h-597.333c-11.782 0-21.333-9.551-21.333-21.333v-149.333h640zM832 320h-277.333v-192h256c11.78 0 21.333 9.553 21.333 21.333v170.667zM490.667 128v192h-298.667v-170.667c0-11.78 9.551-21.333 21.333-21.333h277.333zM213.333 832h597.333c47.13 0 85.333-38.205 85.333-85.333v-597.333c0-47.13-38.204-85.333-85.333-85.333h-597.333c-47.128 0-85.333 38.204-85.333 85.333v597.333c0 47.128 38.205 85.333 85.333 85.333z" />
<glyph unicode="&#xe92a;" glyph-name="excerpt" d="M298.667 149.333c0-23.565 19.103-42.667 42.667-42.667s42.667 19.102 42.667 42.667c0 23.565-19.103 42.667-42.667 42.667s-42.667-19.102-42.667-42.667zM469.333 149.333c0-23.565 19.102-42.667 42.667-42.667s42.667 19.102 42.667 42.667c0 23.565-19.102 42.667-42.667 42.667s-42.667-19.102-42.667-42.667zM128 149.333c0-23.565 19.103-42.667 42.667-42.667s42.667 19.102 42.667 42.667c0 23.565-19.103 42.667-42.667 42.667s-42.667-19.102-42.667-42.667zM640 149.333c0-23.565 19.102-42.667 42.667-42.667s42.667 19.102 42.667 42.667c0 23.565-19.102 42.667-42.667 42.667s-42.667-19.102-42.667-42.667zM810.667 149.333c0-23.565 19.102-42.667 42.667-42.667s42.667 19.102 42.667 42.667c0 23.565-19.102 42.667-42.667 42.667s-42.667-19.102-42.667-42.667zM853.333 618.667h-682.667c-23.467 0-42.667-19.2-42.667-42.667s19.2-42.667 42.667-42.667h682.667c23.467 0 42.667 19.2 42.667 42.667s-19.2 42.667-42.667 42.667zM170.667 320h426.667c23.467 0 42.667 19.2 42.667 42.667s-19.2 42.667-42.667 42.667h-426.667c-23.467 0-42.667-19.2-42.667-42.667s19.2-42.667 42.667-42.667zM853.333 832h-682.667c-23.467 0-42.667-19.2-42.667-42.667v-0.427c0-23.467 19.2-42.667 42.667-42.667h682.667c23.467 0 42.667 19.2 42.667 42.667v0.427c0 23.467-19.2 42.667-42.667 42.667z" />
<glyph unicode="&#xe92b;" glyph-name="flag" d="M614.4 704l-10.24 51.2c-3.84 19.627-21.333 34.133-41.813 34.133h-306.347c-23.467 0-42.667-19.2-42.667-42.667v-640c0-23.467 19.2-42.667 42.667-42.667s42.667 19.2 42.667 42.667v256h238.933l10.24-51.2c3.84-20.053 21.333-34.133 41.813-34.133h221.013c23.467 0 42.667 19.2 42.667 42.667v341.333c0 23.467-19.2 42.667-42.667 42.667h-196.267z" />
<glyph unicode="&#xe92c;" glyph-name="flag-alt" d="M872.533 730.88c11.093 28.16-9.387 58.453-39.68 58.453h-534.187v42.667c0 23.467-19.2 42.667-42.667 42.667s-42.667-19.2-42.667-42.667v-810.667h85.333v341.333h534.187c30.293 0 50.773 30.293 39.68 58.453l-61.867 154.88 61.867 154.88zM640 576c0-46.933-38.4-85.333-85.333-85.333s-85.333 38.4-85.333 85.333c0 46.933 38.4 85.333 85.333 85.333s85.333-38.4 85.333-85.333z" />
<glyph unicode="&#xe92d;" glyph-name="for-gravity" d="M418.927 892.726l-246.124-142.555c-56.7-32.81-91.68-93.481-91.68-159.243v-284.969c0-65.621 34.979-126.434 91.68-159.241l246.124-142.417c56.699-32.811 126.66-32.811 183.36 0l246.123 142.558c56.7 32.811 91.682 93.478 91.682 159.241v284.97c0 65.62-34.982 126.433-91.682 159.243l-246.123 142.414c-56.7 32.81-126.66 32.81-183.36 0zM581.129 855.956l246.127-142.555c43.58-25.315 70.519-71.985 70.519-122.473v-284.969c0-50.487-26.94-97.156-70.519-122.47l-246.127-142.417c-43.584-25.314-97.463-25.314-141.043 0l-246.126 142.417c-43.583 25.314-70.522 71.983-70.522 122.47v285.111c0 50.488 26.94 97.158 70.522 122.473l246.126 142.414c43.58 25.315 97.459 25.315 141.043 0zM626.266 452.941c18.052 0 33.993-11.738 48.375-33.092 1.839-2.735 2.607-5.871 2.394-8.913-0.149-2.163-0.794-4.279-1.899-6.17-1.037-1.771-2.479-3.345-4.301-4.578-2.624-1.771-5.615-2.547-8.533-2.419-2.163 0.098-4.288 0.691-6.195 1.749-1.894 1.050-3.58 2.56-4.877 4.489-9.732 14.426-18.193 20.651-24.964 20.651-7.053 0-16.081-6.366-26.658-21.073-4.514-6.366-13.402-7.778-19.746-3.11-6.349 4.523-7.757 13.436-3.102 19.797 15.373 21.214 31.735 32.67 49.506 32.67zM396.361 452.941c18.054 0 33.993-11.738 48.38-33.092 4.369-6.507 2.679-15.275-3.81-19.661-6.485-4.382-15.232-2.684-19.604 3.819-9.732 14.426-18.195 20.651-24.965 20.651-7.052 0-16.079-6.366-26.658-21.073-4.513-6.366-13.399-7.778-19.746-3.11-6.347 4.523-7.758 13.436-3.103 19.797 15.374 21.214 31.735 32.67 49.507 32.67zM601.583 264.563h0.282l73.344-11.311c3.806-0.567 6.485-4.245 5.922-8.064s-3.947-6.362-7.757-5.939h-0.282l-73.344 11.315c-3.81 0.563-6.49 4.241-5.922 8.060 0.704 3.819 4.087 6.366 7.757 5.939zM421.044 264.563c3.667 0.427 7.193-2.261 7.756-5.939 0.563-3.819-2.116-7.497-5.923-8.060l-73.626-11.315c-3.667-0.422-7.194 2.261-7.758 5.939-0.564 3.819 2.116 7.497 5.924 8.064l73.626 11.311zM709.483 298.645c3.947 0 7.053-3.11 7.053-7.070 0-3.819-2.965-6.929-6.771-7.070h-108.89c-3.947 0-7.049 3.11-7.049 7.070 0 3.819 2.961 6.929 6.767 7.070h108.89zM422.031 298.645c3.682-0.137 6.573-3.046 6.761-6.69 0.004-0.128 0.009-0.252 0.009-0.38 0-2.112-0.883-3.981-2.305-5.269-1.172-1.058-2.711-1.719-4.425-1.796-0.106-0.004-0.213-0.004-0.321-0.004h-108.887c-3.808 0.141-6.77 3.251-6.77 7.070 0 3.959 3.103 7.070 7.052 7.070h108.887zM681.131 338.389c0.845-3.678-1.408-7.356-4.937-8.346l-0.282-0.141-73.344-16.973c-2.816-0.627-5.632 0.525-7.253 2.654-0.567 0.751-0.99 1.621-1.207 2.581-0.128 0.542-0.183 1.088-0.179 1.621 0.026 3.085 2.112 5.879 5.116 6.72l0.282 0.141 73.344 16.973c3.806 0.99 7.616-1.417 8.461-5.231zM341.494 338.389c0.846 3.814 4.655 6.221 8.463 5.231l73.344-16.973 0.282-0.141c3.669-0.99 5.781-4.668 4.936-8.341-0.845-3.819-4.654-6.225-8.462-5.235l-73.344 16.973-0.282 0.141c-3.526 0.99-5.783 4.668-4.937 8.346zM523.443 264l18.615 17.109c3.354 3.145 5.154 7.373 5.333 11.665 0.064 1.527-0.077 3.059-0.427 4.553-0.614 2.62-1.869 5.124-3.776 7.262-3.102 3.392-7.475 5.372-12.13 5.372h-40.623c-9.024 0-16.358-7.351-16.358-16.546 0-4.668 1.971-9.050 5.359-12.305l18.615-17.109c7.053-6.647 18.057-6.647 25.391 0zM500.736 216.764c0.081 0.081 0.115 0.115 0.154 0.128 0.034 0.013 0.068 0.013 0.128 0.013 0.141 0.141 0.282 0.282 0.563 0.422 0.026 0 0.043 0.004 0.064 0.013 0.009 0.004 0.017 0.009 0.026 0.013 0.017 0.013 0.034 0.030 0.051 0.047 0.034 0.034 0.068 0.073 0.141 0.073s0.107 0.034 0.141 0.068c0.017 0.017 0.034 0.034 0.055 0.047 0.013 0.009 0.026 0.017 0.043 0.021 0.013 0 0.030 0.004 0.043 0.004 0.141 0.068 0.282 0.175 0.422 0.282s0.282 0.213 0.422 0.282h0.145c0.068 0 0.102 0.038 0.141 0.073 0.013 0.017 0.030 0.030 0.051 0.043 0.021 0.017 0.051 0.026 0.090 0.026h0.141c0.068 0.073 0.175 0.107 0.282 0.145 0.107 0.034 0.209 0.068 0.282 0.141 0 0 0.141 0 0.141 0.141 0 0 0.141 0 0.141 0.141 0 0 0.141 0 0.141 0.141 0 0 0.141 0 0.141 0.141 0.047 0.047 0.107 0.077 0.171 0.102 0.038 0.017 0.077 0.030 0.111 0.038 0.055 0.021 0.111 0.038 0.162 0.064 0.047 0.021 0.085 0.047 0.119 0.081h0.141c0.115 0 0.137 0 0.209 0.068h0.004c0.013 0.013 0.026 0.026 0.043 0.043 0.009 0.009 0.017 0.017 0.030 0.030l-0.286-0.141c0.073 0 0.141 0.034 0.209 0.068h0.004c0.047 0.021 0.090 0.047 0.137 0.060 0.026 0.009 0.051 0.013 0.077 0.013 0.098 0.047 0.179 0.081 0.256 0.107 0.013 0.004 0.021 0.009 0.034 0.013 0.021 0.009 0.043 0.013 0.060 0.021 0.107 0.034 0.213 0.068 0.354 0.141 0.068 0.034 0.149 0.060 0.23 0.085 0.085 0.021 0.175 0.038 0.265 0.055 0.175 0.034 0.35 0.073 0.491 0.141h0.141c0.567 0.141 1.131 0.286 1.694 0.286h3.102c0.469 0 0.934-0.098 1.485-0.213 0.111-0.021 0.23-0.047 0.35-0.073h0.141c0.034 0 0.077-0.009 0.124-0.017 0.047-0.017 0.102-0.034 0.158-0.051 0.107-0.038 0.213-0.073 0.282-0.073h0.282c0.145-0.068 0.247-0.107 0.354-0.141s0.213-0.073 0.354-0.141h0.141c0.068 0 0.107-0.034 0.141-0.073 0.013-0.013 0.030-0.030 0.047-0.043 0.026-0.017 0.055-0.026 0.094-0.026 0.068 0 0.107-0.038 0.141-0.073 0.013-0.013 0.026-0.026 0.038-0.038 0.026-0.017 0.060-0.030 0.102-0.030l-0.102 0.030-0.32 0.111c0.141 0 0.282-0.141 0.422-0.141 0 0 0.141 0 0.141-0.145 0.073 0 0.107-0.034 0.141-0.068s0.073-0.073 0.141-0.073h0.141c0.030 0 0.051-0.004 0.073-0.013 0.026-0.013 0.047-0.034 0.068-0.055s0.043-0.043 0.073-0.055c0.017-0.009 0.043-0.017 0.068-0.017 0 0 0.141 0 0.141-0.141l0.145-0.141h0.141c0.141-0.141 0.422-0.282 0.563-0.282h0.141c0.068-0.073 0.175-0.145 0.282-0.213 0.055-0.038 0.111-0.077 0.162-0.111 0.047-0.034 0.085-0.068 0.119-0.102h0.141c0.073 0 0.107-0.034 0.141-0.068 0.034-0.038 0.073-0.073 0.141-0.073 0.077 0 0.115-0.043 0.154-0.081 0.030-0.030 0.068-0.060 0.128-0.060h0.141l0.708-0.708c0 0 0 0 0.141-0.141l0.422-0.422c0 0 0 0 0.141-0.145 0.704-0.704 1.271-1.412 1.835-2.261v-0.141l0.141-0.141v-0.141c0-0.030 0.004-0.055 0.013-0.073 0.017-0.030 0.038-0.051 0.055-0.073 0.038-0.034 0.073-0.068 0.073-0.141v-0.141c0 0 0-0.141 0.141-0.141 0 0 0-0.141 0.141-0.141 0.073-0.073 0.107-0.179 0.141-0.282 0.034-0.107 0.073-0.213 0.141-0.286 0 0 0-0.141 0.141-0.141v-0.141c7.334-17.677 17.489-25.173 32.158-25.173s24.823 7.637 32.158 25.173c2.965 7.211 11.285 10.607 18.479 7.637s10.577-11.315 7.616-18.526c-11.426-27.58-31.454-42.709-58.112-42.709-18.475 0-33.707 7.211-45.133 20.646-11.426-13.577-26.658-20.646-45.133-20.646-26.658 0-46.688 14.989-58.113 42.709-2.962 7.211 0.423 15.556 7.616 18.526s15.514-0.427 18.475-7.637c7.334-17.677 17.493-25.173 32.162-25.173s24.823 7.637 32.158 25.173v0.141c0.051 0.051 0.081 0.119 0.111 0.196 0.009 0.030 0.017 0.060 0.030 0.085 0.034 0.107 0.068 0.213 0.141 0.286 0 0 0 0.141 0.141 0.141 0 0 0 0.141 0.141 0.141 0 0 0 0.141 0.141 0.141 0 0 0 0.141 0.141 0.141 0.073 0.073 0.107 0.179 0.141 0.286 0.034 0.102 0.073 0.209 0.141 0.282 0 0 0 0 0 0.141 0 0.073 0.034 0.107 0.073 0.141 0.034 0.034 0.068 0.073 0.068 0.141 0 0 0 0 0 0.141 0.422 0.708 0.99 1.417 1.553 1.984 0 0 0 0 0.141 0.141-0.738 0-0.934 0-0.939 0.038-0.004 0.013 0.017 0.034 0.047 0.060 0.004 0.004 0.004 0.004 0.009 0.009s0.013 0.009 0.017 0.017c0.009 0.004 0.013 0.009 0.021 0.017zM444.318 752.575l2.82-4.243c11.989-17.536 11.989-14.142 28.207-24.042-12.693-5.233-22.707-14.567-30.042-27.719l-0.986-1.98c-7.479 14.142-17.774 24.042-31.032 29.557l2.257 1.414c15.092 8.91 14.529 5.516 28.775 27.012zM576.9 752.575l2.82-4.243c11.989-17.536 11.989-14.142 28.207-24.042-12.693-5.233-22.707-14.567-30.042-27.719l-0.986-1.98c-7.475 14.142-17.775 24.042-31.031 29.557l2.257 1.414c15.091 8.91 14.528 5.516 28.774 27.012zM512.017 843.086l5.218-8.061c21.018-31.962 21.158-25.739 49.792-43.841-22.711-9.758-40.482-26.87-53.598-51.478l-1.412-2.687c-13.257 26.022-31.595 43.983-55.006 54.165l3.102 1.98c27.644 16.971 26.377 10.182 51.904 49.923zM608.597 653.295l-14.101-56.145-1.412 0.141c-17.028 1.877-34.086 3.161-51.153 3.857-36.932 1.504-73.916 0.251-110.767-3.715l-2.82-0.283-14.106 56.145c-3.526 13.859-12.13 26.022-24.26 33.8-26.234 16.829-61.073 9.193-77.998-16.971-45.3-70.696-79.287-150.889-101.339-242.938-42.819-27.584-80.664-54.784-112.027-80.64l-2.539-2.121c-36.813-30.549-63.894-58.692-79.55-83.157-9.027-14.144-14.528-27.294-16.079-39.881-1.834-15.134 1.975-29.133 11.707-40.166 3.111-3.537 6.751-6.673 10.908-9.417 27.199-21.833 81.348-23.172 157.587-7.996-0.058-5.478-0.087-10.987-0.087-16.529l9.873-7.778 28.565-14.285c-0.041-1.724-0.079-3.447-0.113-5.167l179.64-103.945c10.834-3.575 21.201-6.737 31.101-9.476 26.432-13.295 50.018-21.278 73.929-21.278 18.914 0 39.364 4.834 61.376 13.141 14.822 2.769 30.558 6.605 47.202 11.516l191.514 110.921c-0.055 2.786-0.124 5.572-0.196 8.363 4.147 2.236 8.32 4.463 12.518 6.673l16.222 7.074 10.577 9.899c0 106.56-10.778 199.821-31.735 282.987 43.84 28.109 82.543 55.838 114.496 82.167 38.080 31.398 65.865 60.107 81.946 85.139 9.028 14.142 14.528 27.295 16.081 39.881 1.822 15.061-1.941 28.862-11.571 39.868-0.947 1.312-1.967 2.59-3.063 3.832-29.478 33.659-106.351 31.113-219.75 1.556-24.077-6.268-49.429-13.721-75.767-22.252-0.845 1.339-1.694 2.675-2.547 4.008-16.785 26.305-51.763 33.942-77.999 16.971l-0.704-0.424c-11.708-7.778-20.169-19.658-23.556-33.376zM424.675 554.016c6.057 0.752 12.12 1.423 18.192 2.015 35.443 3.456 71.104 4.195 106.679 2.252 15.667-0.856 31.313-2.232 46.921-4.125l29.76-3.677 11.004 43.651 56.887 20.787c25.156-45.737 44.574-95.683 59.166-149.195 0.819-3.004 1.626-6.020 2.415-9.050 0.397-1.523 0.789-3.046 1.178-4.574 3.255-12.77 6.242-25.732 8.981-38.882 0.324-1.57 0.649-3.145 0.969-4.719 15.501-76.403 22.596-159.049 23.625-246.31l-209.323-121.118c-43.584-25.314-97.463-25.314-141.043 0l-219.43 126.967c0.086 1.6 0.174 3.2 0.265 4.8 0.080 1.408 0.162 2.816 0.246 4.224 0.802 13.414 1.792 26.867 2.97 40.324 0.413 0.107 0.827 0.218 1.241 0.324l0.525 0.137c0.095 1.468 0.193 2.935 0.293 4.399-0.556-0.149-1.111-0.294-1.665-0.439 2.385 26.313 5.489 52.629 9.312 78.711 4.498 35.029 10.409 69.312 17.786 102.524l0.623 0.388 0.961 0.602c4.614 20.015 9.689 39.667 15.225 58.833-0.632-0.375-1.264-0.751-1.894-1.126 19.809 68.787 46.624 131.653 80.98 185.334 4.231 6.505 12.976 8.486 19.464 4.243 2.962-1.98 5.219-4.95 6.065-8.486l23.273-92.349 28.35 3.535zM693.943 614.858c-18.509-6.423-37.449-13.343-56.713-20.726l12.271 48.698c0.107 0.451 0.239 0.893 0.393 1.325 1.041 2.953 3.089 5.433 5.67 7.161 4.617 3.017 10.368 2.887 14.831 0.222 1.813-1.083 3.413-2.585 4.634-4.465 6.554-10.24 12.86-20.996 18.914-32.215zM797.679 483.26c-16.393 52.285-37.15 100.457-62.097 145.433 22.298 7.068 43.802 13.312 64.311 18.663 49.929 13.011 92.382 20.224 124.54 21.355 29.056 0.849 47.253-3.394 52.894-9.9 1.267-1.556 1.835-3.253 1.412-6.647-0.708-5.516-3.81-13.152-9.732-22.345-13.261-20.648-38.225-46.528-73.344-75.379-27.648-22.775-60.689-46.749-97.984-71.18zM198.446 368.252c-8.608-48.969-14.145-101.077-16.532-156.634-32.608-7.019-60.934-11.029-84.006-11.87h-1.128c-29.056-0.99-47.25 3.396-52.892 9.758-1.269 1.557-1.834 3.255-1.411 6.647 0.705 5.517 3.808 13.154 9.732 22.345 13.258 20.651 38.223 46.528 73.344 75.379 21.277 17.527 45.747 35.763 72.893 54.374zM677.035 410.935c0.213 3.042-0.555 6.178-2.394 8.913-14.383 21.355-30.323 33.092-48.375 33.092-17.771 0-34.133-11.456-49.506-32.67-4.655-6.362-3.247-15.275 3.102-19.797 6.345-4.668 15.232-3.255 19.746 3.11 10.577 14.707 19.605 21.073 26.658 21.073 6.771 0 15.232-6.225 24.964-20.651 1.297-1.929 2.982-3.439 4.877-4.489 1.907-1.058 4.032-1.651 6.195-1.749 2.918-0.128 5.909 0.649 8.533 2.419 1.822 1.233 3.264 2.807 4.301 4.578 1.105 1.89 1.749 4.006 1.899 6.17zM615.044 330.287l-15.718-3.639-0.282-0.141c-3.004-0.841-5.090-3.635-5.116-6.72-0.004-0.533 0.051-1.079 0.179-1.621 0.218-0.96 0.64-1.83 1.207-2.581 1.621-2.129 4.437-3.281 7.253-2.654l73.344 16.973 0.282 0.141c3.529 0.99 5.781 4.668 4.937 8.346-0.845 3.814-4.655 6.221-8.461 5.231l-57.626-13.333zM543.189 304.589c1.907-2.138 3.162-4.642 3.776-7.262 0.35-1.493 0.491-3.025 0.427-4.553-0.179-4.292-1.98-8.521-5.333-11.665l-18.615-17.109c-7.334-6.647-18.338-6.647-25.391 0l-18.615 17.109c-3.388 3.255-5.359 7.637-5.359 12.305 0 9.195 7.334 16.546 16.358 16.546h40.623c4.655 0 9.028-1.98 12.13-5.372zM421.748 284.506h-108.887c-3.808 0.141-6.77 3.251-6.77 7.070 0 3.959 3.103 7.070 7.052 7.070h108.887c3.682-0.137 6.573-3.046 6.761-6.69 0.004-0.128 0.009-0.252 0.009-0.38 0-2.112-0.883-3.981-2.305-5.269-1.172-1.058-2.711-1.719-4.425-1.796-0.106-0.004-0.213-0.004-0.321-0.004zM396.361 452.941c18.054 0 33.993-11.738 48.38-33.092 4.369-6.507 2.679-15.275-3.81-19.661-6.485-4.382-15.232-2.684-19.604 3.819-9.732 14.426-18.195 20.651-24.965 20.651-7.052 0-16.079-6.366-26.658-21.073-4.513-6.366-13.399-7.778-19.746-3.11-6.347 4.523-7.758 13.436-3.103 19.797 15.374 21.214 31.735 32.67 49.507 32.67zM341.494 338.389c0.846 3.814 4.655 6.221 8.463 5.231l73.344-16.973 0.282-0.141c3.669-0.99 5.781-4.668 4.936-8.341-0.845-3.819-4.654-6.225-8.462-5.235l-73.344 16.973-0.282 0.141c-3.526 0.99-5.783 4.668-4.937 8.346zM428.8 258.624c-0.563 3.678-4.090 6.366-7.756 5.939h-0.282l-73.344-11.311c-3.808-0.567-6.488-4.245-5.924-8.064 0.564-3.678 4.090-6.362 7.758-5.939h0.282l73.344 11.315c3.807 0.563 6.486 4.241 5.923 8.060zM601.583 264.563h0.282l73.344-11.311c3.806-0.567 6.485-4.245 5.922-8.064s-3.947-6.362-7.757-5.939h-0.282l-73.344 11.315c-3.81 0.563-6.49 4.241-5.922 8.060 0.704 3.819 4.087 6.366 7.757 5.939zM709.483 298.645c3.947 0 7.053-3.11 7.053-7.070 0-3.819-2.965-6.929-6.771-7.070h-108.89c-3.947 0-7.049 3.11-7.049 7.070 0 3.819 2.961 6.929 6.767 7.070h108.89zM501.018 216.905c-0.060 0-0.094 0-0.128-0.013-0.038-0.013-0.073-0.047-0.154-0.128-0.009-0.009-0.013-0.013-0.021-0.017l-0.026-0.026c-0.030-0.026-0.051-0.047-0.047-0.060 0.004-0.038 0.201-0.038 0.939-0.038l-0.141-0.141c-0.563-0.567-1.131-1.276-1.553-1.984v-0.141c0-0.068-0.034-0.107-0.068-0.141-0.038-0.034-0.073-0.068-0.073-0.141v-0.141c-0.068-0.073-0.107-0.179-0.141-0.282-0.034-0.107-0.068-0.213-0.141-0.286-0.141 0-0.141-0.141-0.141-0.141-0.141 0-0.141-0.141-0.141-0.141-0.141 0-0.141-0.141-0.141-0.141-0.141 0-0.141-0.141-0.141-0.141-0.073-0.073-0.107-0.179-0.141-0.286-0.013-0.026-0.021-0.055-0.030-0.085-0.030-0.077-0.060-0.145-0.111-0.196v-0.141c-7.334-17.536-17.489-25.173-32.158-25.173s-24.828 7.497-32.162 25.173c-2.961 7.211-11.282 10.607-18.475 7.637s-10.578-11.315-7.616-18.526c11.425-27.721 31.455-42.709 58.113-42.709 18.475 0 33.707 7.070 45.133 20.646 11.426-13.436 26.658-20.646 45.133-20.646 26.658 0 46.686 15.13 58.112 42.709 2.961 7.211-0.422 15.556-7.616 18.526s-15.514-0.427-18.479-7.637c-7.334-17.536-17.489-25.173-32.158-25.173s-24.823 7.497-32.158 25.173v0.141c-0.141 0-0.141 0.141-0.141 0.141-0.068 0.073-0.107 0.179-0.141 0.286-0.034 0.102-0.068 0.209-0.141 0.282-0.141 0-0.141 0.141-0.141 0.141-0.141 0-0.141 0.141-0.141 0.141v0.141c0 0.073-0.034 0.107-0.073 0.141-0.017 0.021-0.038 0.043-0.055 0.073-0.009 0.017-0.013 0.043-0.013 0.073v0.141l-0.141 0.141v0.141c-0.563 0.849-1.131 1.557-1.835 2.261l-0.141 0.145-1.271 1.271h-0.141c-0.060 0-0.098 0.030-0.128 0.060-0.038 0.038-0.077 0.081-0.154 0.081-0.068 0-0.107 0.034-0.141 0.073-0.034 0.034-0.068 0.068-0.141 0.068h-0.141c-0.034 0.034-0.073 0.068-0.119 0.102-0.051 0.034-0.107 0.073-0.162 0.111-0.107 0.068-0.213 0.141-0.282 0.213h-0.141c-0.141 0-0.422 0.141-0.563 0.282h-0.141l-0.145 0.141c0 0.141-0.141 0.141-0.141 0.141-0.026 0-0.051 0.009-0.068 0.017-0.030 0.013-0.051 0.034-0.073 0.055s-0.043 0.043-0.068 0.055c-0.021 0.009-0.043 0.013-0.073 0.013h-0.141c-0.068 0-0.107 0.038-0.141 0.073s-0.068 0.068-0.141 0.068c0 0.145-0.141 0.145-0.141 0.145l-0.102 0.030c-0.013 0.013-0.026 0.026-0.038 0.038-0.034 0.034-0.073 0.073-0.141 0.073-0.038 0-0.068 0.009-0.094 0.026-0.017 0.013-0.034 0.030-0.047 0.043-0.034 0.038-0.073 0.073-0.141 0.073h-0.141c-0.141 0.068-0.247 0.107-0.354 0.141s-0.209 0.073-0.354 0.141h-0.282c-0.068 0-0.175 0.034-0.282 0.073-0.055 0.017-0.111 0.034-0.158 0.051-0.047 0.009-0.090 0.017-0.124 0.017h-0.141c-0.119 0.026-0.239 0.051-0.35 0.073-0.55 0.115-1.015 0.213-1.485 0.213h-3.102c-0.563 0-1.126-0.145-1.694-0.286h-0.141c-0.141-0.068-0.316-0.107-0.491-0.141-0.090-0.017-0.179-0.034-0.265-0.055-0.081-0.026-0.162-0.051-0.23-0.085-0.141-0.073-0.247-0.107-0.354-0.141l-0.060-0.021-0.034-0.013c-0.077-0.026-0.158-0.060-0.256-0.107-0.026 0-0.051-0.004-0.077-0.013-0.047-0.013-0.090-0.038-0.137-0.060h-0.004c0.013 0.013 0.030 0.026 0.047 0.043l0.030 0.030-0.286-0.141h-0.141c-0.034-0.034-0.073-0.060-0.119-0.081-0.051-0.026-0.107-0.043-0.162-0.064-0.034-0.009-0.073-0.021-0.111-0.038-0.064-0.026-0.124-0.055-0.171-0.102 0-0.141-0.141-0.141-0.141-0.141 0-0.141-0.141-0.141-0.141-0.141 0-0.141-0.141-0.141-0.141-0.141 0-0.141-0.141-0.141-0.141-0.141-0.073-0.073-0.175-0.107-0.282-0.141-0.107-0.038-0.213-0.073-0.282-0.145h-0.141c-0.038 0-0.068-0.009-0.090-0.026-0.021-0.013-0.038-0.026-0.051-0.043-0.038-0.034-0.073-0.073-0.141-0.073h-0.145c-0.141-0.068-0.282-0.175-0.422-0.282s-0.282-0.213-0.422-0.282c-0.013 0-0.030-0.004-0.043-0.004-0.017-0.004-0.030-0.013-0.043-0.021-0.021-0.013-0.038-0.030-0.055-0.047-0.034-0.034-0.068-0.068-0.141-0.068s-0.107-0.038-0.141-0.073c-0.017-0.017-0.034-0.034-0.051-0.047-0.009-0.004-0.017-0.009-0.026-0.013-0.021-0.009-0.038-0.013-0.064-0.013-0.282-0.141-0.422-0.282-0.563-0.422z" />
<glyph unicode="&#xe92e;" glyph-name="format-quote1" d="M305.92 234.667c21.76 0 41.813 12.373 51.2 31.573l60.587 121.173c5.973 11.947 8.96 24.747 8.96 37.973v193.28c0 23.467-19.2 42.667-42.667 42.667h-170.667c-23.467 0-42.667-19.2-42.667-42.667v-170.667c0-23.467 19.2-42.667 42.667-42.667h85.333l-43.947-87.893c-19.2-37.973 8.533-82.773 51.2-82.773zM732.587 234.667c21.76 0 41.813 12.373 51.2 31.573l60.587 121.173c5.973 11.947 8.96 24.747 8.96 37.973v193.28c0 23.467-19.2 42.667-42.667 42.667h-170.667c-23.467 0-42.667-19.2-42.667-42.667v-170.667c0-23.467 19.2-42.667 42.667-42.667h85.333l-43.947-87.893c-19.2-37.973 8.533-82.773 51.2-82.773z" />
<glyph unicode="&#xe92f;" glyph-name="freshbooks" d="M249.263 342.46c0 0 127.553 182.601 278.379 196.833 153.412 14.517 247.095 86.114 247.095 86.114s-93.325-107.971-256.452-123.488c-140.653-13.299-269.022-159.458-269.022-159.458zM256 917.333c-117.821 0-213.333-95.513-213.333-213.333v-512c0-117.82 95.513-213.333 213.333-213.333h512c117.82 0 213.333 95.514 213.333 213.333v512c0 117.821-95.514 213.333-213.333 213.333h-512zM228.341 307.494c-6.437 0.606-12.937 1.263-19.499 1.971 0 0 27.906 360.178 342.556 350.882 260.766-7.713 344.602 86.319 344.602 86.319s2.662-489.173-641.888-441.34c-45.262-44.343-81.843-123.145-81.843-123.145-40.603-7.526-44.269 17.553-44.269 17.553s8.381-1.515 20.707 14.895c33.010 43.831 59.721 73.348 79.634 92.864zM249.263 342.46c0 0 127.553 182.601 278.379 196.833 153.412 14.517 247.095 86.114 247.095 86.114s-93.325-107.971-256.452-123.488c-140.653-13.299-269.022-159.458-269.022-159.458z" />
<glyph unicode="&#xe930;" glyph-name="get-response" d="M941.184 149.333c22.165 0 40.149 16.687 40.149 37.244v381.837c-146.313-240.487-314.526-333.295-471.467-333.748-87.191-0.226-167.398 29.231-231.875 73.591-83.079 57.165-133.181 145.587-146.742 224.226-0.105 0.606-0.21 1.212-0.315 1.815-0.923 5.299-1.825 10.48-2.504 14.966-3.421 22.051 13.832 46.055 42.789 46.055h19.903c18.053-80.282 65.559-137.119 113.171-173.317 63.719-48.444 138.493-66.342 204.328-67.682 178.628-3.558 352.431 144.708 463.59 307.012 5.632-6.457 9.101-14.583 9.122-23.52v28.892c0 20.577-17.984 37.295-40.149 37.295h-858.382c-22.188 0-40.135-16.717-40.135-37.295v-480.128c0-20.557 17.947-37.244 40.135-37.244h858.382z" />
<glyph unicode="&#xe931;" glyph-name="circle-check" d="M225.385 161.383c76.016-76.009 179.112-118.716 286.615-118.716 107.498 0 210.6 42.708 286.617 118.716 76.009 76.017 118.716 179.115 118.716 286.617s-42.708 210.599-118.716 286.615c-76.017 76.017-179.115 118.718-286.617 118.718s-210.599-42.706-286.615-118.718-118.718-179.112-118.718-286.615c0-107.498 42.706-210.6 118.718-286.617zM356.099 471.366c8.265 0 16.194-3.285 22.040-9.129l0.051 0.051 71.44-68.907 196.232 193.547c5.848 5.846 13.773 9.128 22.040 9.128s16.192-3.285 22.040-9.128c5.848-5.846 9.129-13.775 9.129-22.040s-3.285-16.192-9.129-22.040l-240.312-242.947-115.571 118.256c-5.846 5.848-9.128 13.773-9.128 22.040s3.285 16.192 9.128 22.040c5.846 5.848 13.775 9.129 22.040 9.129z" />
<glyph unicode="&#xe932;" glyph-name="gravity-logo" d="M902.938 725.511l-303.283 175.051c-38.609 22.362-102.025 22.362-140.634 0l-303.283-175.051c-38.609-22.362-70.405-77.218-70.405-121.767v-350.275c0-44.727 31.621-99.409 70.405-121.771l303.283-175.049c38.609-22.362 102.025-22.362 140.634 0l303.283 174.874c38.784 22.366 70.404 77.218 70.404 121.771v350.275c0 44.724-31.62 99.58-70.404 121.942zM782.916 490.364h-340.843c-19.217 0-33.543-5.589-44.724-17.472-24.808-26.381-31.796-77.568-33.717-106.044h329.662v46.123h87.177v-133.299h-500.695l-3.145 40.183c-0.524 5.764-10.307 140.983 57.302 212.962 28.127 29.872 64.814 45.071 109.015 45.071h340.143v-87.525h-0.175z" />
<glyph unicode="&#xe933;" glyph-name="gravity-pdf" d="M481.617 9.728c-99.063 0.043-195.108 34.095-272.075 96.461-76.967 62.362-130.19 149.261-150.77 246.161-0.978 6.822 0.687 13.76 4.653 19.396 3.966 5.632 9.936 9.54 16.687 10.923 6.752 1.378 13.775 0.128 19.636-3.499 5.86-3.622 10.115-9.348 11.893-16.009 18.805-87.262 67.853-165.065 138.476-219.661 70.622-54.592 158.271-82.466 247.453-78.686 89.186 3.776 174.161 38.959 239.915 99.332s108.045 142.046 119.403 230.583c0.887 7.168 4.591 13.692 10.287 18.133 5.696 4.437 12.924 6.434 20.092 5.547 7.172-0.892 13.692-4.591 18.133-10.287s6.434-12.928 5.547-20.096c-13.197-104.533-64.102-200.653-143.155-270.306-79.053-69.658-180.813-108.058-286.174-107.994zM85.909 501.551c-1.907-0.154-3.823-0.154-5.73 0-3.496 0.755-6.807 2.197-9.743 4.237-2.935 2.044-5.435 4.651-7.356 7.667s-3.223 6.387-3.833 9.911c-0.61 3.524-0.514 7.134 0.282 10.62 15.497 71.449 48.853 137.802 96.954 192.861s109.374 97.024 178.095 121.974c66.141 24.034 137.15 31.563 206.859 21.936 69.713-9.628 136.021-36.122 193.173-77.183 2.88-2.129 5.316-4.806 7.164-7.877s3.072-6.475 3.605-10.019c0.529-3.544 0.358-7.158-0.503-10.636-0.866-3.478-2.406-6.751-4.535-9.633s-4.809-5.317-7.876-7.165c-3.072-1.848-6.477-3.073-10.022-3.605-3.541-0.532-7.155-0.361-10.633 0.504-3.482 0.864-6.754 2.406-9.634 4.535-64.209 46.292-141.402 71.114-220.557 70.924-86.262-0.31-169.851-29.958-237.029-84.070s-113.948-129.468-132.623-213.683c-1.295-5.973-4.577-11.332-9.309-15.198-4.732-3.87-10.636-6.020-16.747-6.101zM481.617 395.166c26.095 0 47.249 21.154 47.249 47.245 0 26.095-21.154 47.249-47.249 47.249-26.091 0-47.245-21.154-47.245-47.249 0-26.091 21.154-47.245 47.245-47.245zM481.621 314.185c-22.498 0.038-44.595 5.995-64.066 17.263-19.473 11.273-35.64 27.465-46.881 46.955s-17.161 41.591-17.165 64.090c-0.005 22.502 5.906 44.608 17.14 64.102s27.395 35.692 46.863 46.97c19.467 11.279 41.56 17.24 64.058 17.288s44.617-5.82 64.132-17.016c19.516-11.196 35.746-27.326 47.061-46.773 3.529-6.204 4.459-13.551 2.59-20.442-1.869-6.886-6.391-12.757-12.57-16.324-6.182-3.567-13.525-4.548-20.425-2.722-6.899 1.822-12.8 6.302-16.41 12.459-8.179 14.195-20.813 25.289-35.942 31.569-15.125 6.276-31.906 7.386-47.727 3.153-15.825-4.233-29.807-13.572-39.783-26.564-9.974-12.992-15.38-28.915-15.38-45.295s5.406-32.303 15.38-45.295c9.976-12.992 23.958-22.327 39.783-26.564 15.821-4.233 32.602-3.123 47.727 3.157 15.13 6.276 27.763 17.374 35.942 31.565 3.61 6.157 9.51 10.637 16.41 12.463 6.899 1.822 14.242 0.845 20.425-2.726 6.178-3.567 10.701-9.438 12.57-16.324 1.869-6.891 0.939-14.238-2.59-20.442-11.255-19.546-27.447-35.789-46.95-47.117s-41.638-17.335-64.192-17.429zM481.617 162.172c-38.583-0.051-76.762 7.898-112.116 23.356-3.36 1.344-6.415 3.354-8.985 5.901s-4.601 5.589-5.974 8.939c-1.373 3.345-2.059 6.938-2.018 10.556 0.041 3.622 0.809 7.194 2.257 10.513 1.449 3.315 3.549 6.306 6.175 8.798s5.727 4.429 9.116 5.696c3.39 1.271 7 1.843 10.616 1.694 3.616-0.154 7.165-1.028 10.436-2.581 30.915-13.449 64.441-19.827 98.135-18.667 33.694 1.156 66.705 9.822 96.627 25.361 29.918 15.539 55.991 37.559 76.314 64.461 20.326 26.897 34.389 57.997 41.165 91.021 0.521 3.648 1.783 7.151 3.712 10.291 1.924 3.14 4.471 5.854 7.484 7.974s6.43 3.605 10.035 4.356c3.605 0.755 7.33 0.764 10.94 0.026s7.031-2.21 10.052-4.318c3.021-2.108 5.581-4.813 7.518-7.945 1.937-3.136 3.217-6.63 3.755-10.274 0.538-3.648 0.324-7.364-0.627-10.923-13.060-63.228-47.488-120.034-97.502-160.87-50.010-40.832-112.55-63.206-177.114-63.364zM248.086 318.511c-5.349-0.034-10.585 1.536-15.036 4.501s-7.912 7.198-9.939 12.147c-24.623 59.836-27.783 126.349-8.943 188.245 18.84 61.9 58.52 115.374 112.303 151.344s118.359 52.221 182.76 45.995c64.405-6.227 124.668-34.548 170.564-80.155 4.604-5.149 7.061-11.866 6.865-18.769-0.192-6.904-3.021-13.472-7.906-18.356-4.881-4.884-11.452-7.713-18.355-7.906s-13.619 2.264-18.769 6.867c-37.013 37.082-85.751 60.172-137.89 65.327-52.143 5.155-104.457-7.944-148.016-37.060s-75.666-72.447-90.84-122.598c-15.174-50.146-12.475-104.009 7.636-152.388 1.647-4.058 2.284-8.452 1.857-12.809s-1.906-8.546-4.31-12.203c-2.404-3.661-5.66-6.682-9.489-8.802s-8.116-3.281-12.492-3.379zM302.58 229.636c18.63 0 33.732 15.104 33.732 33.732 0 18.633-15.102 33.732-33.732 33.732s-33.732-15.1-33.732-33.732c0-18.628 15.102-33.732 33.732-33.732zM783.582 678.863c18.633 0 33.732 15.103 33.732 33.733s-15.1 33.732-33.732 33.732c-18.628 0-33.732-15.103-33.732-33.732s15.104-33.733 33.732-33.733zM76.399 408.678c18.63 0 33.732 15.104 33.732 33.732 0 18.633-15.102 33.732-33.732 33.732s-33.732-15.1-33.732-33.732c0-18.628 15.102-33.732 33.732-33.732zM954.3 466.086h-384.896c-7.168 0-14.042 2.85-19.11 7.919s-7.919 11.942-7.919 19.11c0 7.168 2.85 14.046 7.919 19.115s11.942 7.915 19.11 7.915h384.896c7.168 0 14.042-2.846 19.11-7.915s7.919-11.947 7.919-19.115c0-7.168-2.85-14.042-7.919-19.11s-11.942-7.919-19.11-7.919zM729.741 364.783h-160.337c-7.168 0-14.042 2.846-19.11 7.915s-7.919 11.947-7.919 19.115c0 7.168 2.85 14.042 7.919 19.11s11.942 7.919 19.11 7.919h160.337c7.168 0 14.042-2.85 19.11-7.919s7.919-11.942 7.919-19.11c0-7.168-2.85-14.046-7.919-19.115s-11.942-7.915-19.11-7.915zM954.3 364.783h-70.601c-7.168 0-14.046 2.846-19.115 7.915s-7.915 11.947-7.915 19.115c0 7.168 2.846 14.042 7.915 19.11s11.947 7.919 19.115 7.919h70.601c7.168 0 14.042-2.85 19.11-7.919s7.919-11.942 7.919-19.11c0-7.168-2.85-14.046-7.919-19.115s-11.942-7.915-19.11-7.915z" />
<glyph unicode="&#xe934;" glyph-name="helpscout" d="M259.614 379.767l226.116 226.117c29.090 29.091 47.603 68.76 47.603 113.719 0 43.636-17.19 83.306-46.281 112.397l-226.116-226.116c-29.091-29.091-47.603-68.76-47.603-113.72 0-43.635 17.19-83.307 46.281-112.397zM260.937 285.884c-29.091-29.090-47.603-70.080-47.603-113.719 0-43.635 17.19-83.307 46.281-112.397l546.116 546.117c29.090 29.091 47.603 68.76 47.603 113.719 0 43.636-17.19 83.306-46.281 112.397l-546.116-546.116zM580.937 285.884l226.116 226.116c29.090-29.090 46.281-68.762 46.281-112.397 0-44.958-18.513-84.629-47.603-113.719l-226.116-226.116c-29.090 29.090-46.281 68.762-46.281 112.397 0 44.958 18.513 84.629 47.603 113.719z" />
<glyph unicode="&#xe935;" glyph-name="hidden" d="M512 682.67c117.76 0 213.333-95.573 213.333-213.332 0-21.76-4.267-42.667-10.24-62.293l130.56-130.56c59.307 52.48 106.24 118.187 135.68 193.28-73.813 186.879-256 319.572-469.333 319.572-54.187 0-106.24-8.533-155.307-24.32l92.587-92.587c20.053 5.973 40.96 10.24 62.72 10.24zM115.627 825.176c-16.64-16.64-16.64-43.52 0-60.16l84.053-84.053c-69.12-55.040-124.16-127.573-157.013-211.625 73.813-187.307 256-320 469.333-320 64.853 0 126.72 12.8 183.893 34.987l116.053-116.053c16.64-16.64 43.52-16.64 60.16 0s16.64 43.52 0 60.16l-695.893 696.745c-16.64 16.64-43.947 16.64-60.587 0zM512 256.004c-117.76 0-213.333 95.573-213.333 213.333 0 32.853 7.68 63.999 20.907 91.305l66.987-66.985c-1.28-7.68-2.56-15.787-2.56-24.32 0-70.827 57.173-128 128-128 8.533 0 16.213 1.28 24.32 2.987l66.987-66.987c-27.733-13.653-58.453-21.333-91.307-21.333zM638.72 483.418c-6.4 59.732-53.333 106.239-112.64 112.639l112.64-112.639z" />
<glyph unicode="&#xe936;" glyph-name="how-to-reg" d="M512 106.667l-36.693 36.693c-50.347 50.347-49.92 132.267 0.853 181.76l35.84 34.987c-16.64 1.707-29.013 2.56-42.667 2.56-113.92 0-341.333-57.173-341.333-170.667v-85.333h384zM469.333 448c94.293 0 170.667 76.373 170.667 170.667s-76.373 170.667-170.667 170.667c-94.293 0-170.667-76.373-170.667-170.667s76.373-170.667 170.667-170.667zM690.347 116.053c-16.64-16.64-43.947-16.64-60.587 0l-88.32 89.173c-16.213 16.64-16.213 43.093 0 59.307l0.427 0.427c16.64 16.64 43.52 16.64 59.733 0l58.453-58.453 189.013 190.293c16.64 16.64 43.52 16.64 60.16 0l0.427-0.427c16.213-16.64 16.213-43.093 0-59.307l-219.307-221.013z" />
<glyph unicode="&#xe937;" glyph-name="html-code" d="M371.2 281.6l-166.4 166.4 166.4 166.401c16.64 16.64 16.64 43.093 0 59.733s-43.093 16.64-59.733 0l-195.84-195.841c-16.64-16.64-16.64-43.52 0-60.16l195.84-196.267c16.64-16.64 43.093-16.64 59.733 0s16.64 43.093 0 59.733zM652.8 281.6l166.4 166.4-166.4 166.401c-16.64 16.64-16.64 43.093 0 59.733s43.093 16.64 59.733 0l195.84-195.841c16.64-16.64 16.64-43.52 0-60.16l-195.84-196.267c-16.64-16.64-43.093-16.64-59.733 0s-16.64 43.093 0 59.733z" />
<glyph unicode="&#xe938;" glyph-name="circle-close" d="M512 42.667c-107.499 0-210.599 42.708-286.615 118.716-76.017 76.017-118.718 179.115-118.718 286.617s42.706 210.599 118.718 286.615 179.112 118.718 286.615 118.718c107.498 0 210.6-42.706 286.617-118.718 76.009-76.016 118.716-179.112 118.716-286.615 0-107.498-42.708-210.6-118.716-286.617-76.017-76.009-179.115-118.716-286.617-118.716zM446.488 585.155c-9.555 9.228-22.353 14.337-35.64 14.219s-25.992-5.444-35.387-14.839c-9.395-9.395-14.722-22.1-14.839-35.387s4.991-26.085 14.219-35.64l65.512-65.512-65.512-65.512c-9.228-9.555-14.337-22.353-14.219-35.64s5.444-25.992 14.839-35.386c9.395-9.394 22.1-14.723 35.387-14.841s26.085 4.991 35.64 14.221l65.512 65.512 65.512-65.512c9.555-9.23 22.353-14.339 35.64-14.221s25.992 5.447 35.386 14.841c9.394 9.394 14.723 22.099 14.841 35.386s-4.991 26.085-14.221 35.64l-65.512 65.512 65.512 65.512c9.23 9.555 14.339 22.353 14.221 35.64s-5.447 25.992-14.841 35.387c-9.394 9.395-22.099 14.722-35.386 14.839s-26.085-4.991-35.64-14.219l-65.512-65.512-65.512 65.512z" />
<glyph unicode="&#xe939;" glyph-name="help" d="M512 874.667c-235.52 0-426.667-191.147-426.667-426.667s191.147-426.667 426.667-426.667c235.52 0 426.667 191.147 426.667 426.667s-191.147 426.667-426.667 426.667zM554.667 149.333h-85.333v85.333h85.333v-85.333zM642.987 480l-38.4-39.253c-21.333-21.76-36.693-41.387-44.373-72.107-3.413-13.653-5.547-29.013-5.547-48.64h-85.333v21.333c0 19.627 3.413 38.4 9.387 55.893 8.533 24.747 22.613 46.933 40.533 64.853l52.907 53.76c19.627 18.773 29.013 46.933 23.467 76.8-5.547 30.72-29.44 56.747-59.307 65.28-47.36 13.227-91.307-13.653-105.387-54.187-5.12-15.787-18.347-27.733-34.987-27.733h-12.8c-24.747 0-41.813 23.893-34.987 47.787 18.347 62.72 71.68 110.507 137.813 120.747 64.853 10.24 126.72-23.467 165.12-76.8 50.347-69.547 35.413-144.213-8.107-187.733z" />
<glyph unicode="&#xe93a;" glyph-name="hubspot" d="M909.717 489.199c-19.964 34.347-48.047 61.881-83.153 82.611-26.236 15.273-53.44 24.966-84.096 29.129v109.135c30.656 13.016 49.681 41.827 49.681 75.438 0 45.812-36.736 82.937-82.513 82.937-45.811 0-83.196-37.124-83.196-82.937 0-33.611 17.929-62.422 48.585-75.438v-109.184c-24.525-3.544-49.958-11.189-73.182-22.937-47.437 36.027-202.985 154.218-293.978 223.249 2.158 7.781 3.82 15.8 3.82 24.261 0 50.742-41.091 91.87-91.852 91.87s-91.833-41.128-91.833-91.87c0-50.736 41.116-91.876 91.876-91.876 17.314 0 33.329 5.064 47.148 13.391l19.203-14.568 263.861-190.116c-13.948-12.809-26.94-27.376-37.333-43.721-21.060-33.323-33.929-69.986-33.929-109.982v-8.346c0-28.075 5.333-54.579 14.421-79.475 8-21.743 19.699-41.51 34.189-59.383l-87.573-87.787c-12.693 4.723-26.475 5.696-39.702 2.795s-25.34-9.549-34.89-19.153c-6.612-6.579-11.853-14.404-15.418-23.023s-5.385-17.86-5.354-27.191c0.006-18.961 7.394-36.787 20.809-50.193 6.575-6.618 14.399-11.866 23.016-15.437s17.858-5.397 27.186-5.376c9.331-0.021 18.576 1.805 27.195 5.376s16.448 8.819 23.027 15.437c6.605 6.579 11.844 14.4 15.411 23.019 3.571 8.614 5.393 17.852 5.372 27.174 0 7.339-1.135 14.502-3.268 21.308l90.517 90.526c12.407-8.572 25.809-15.787 40.218-22.012 28.42-12.284 59.785-19.772 94.114-19.772h6.293c37.952 0 73.749 8.913 107.405 27.149 35.465 19.273 63.219 45.623 84.186 79.266 21.082 33.732 32.687 71.002 32.687 112.009v2.048c0 40.337-9.34 77.555-28.949 111.65zM799.121 299.298c-24.567-27.302-52.809-44.122-84.732-44.122h-5.261c-18.236 0-36.070 5.039-53.534 14.208-19.682 10.091-34.641 24.486-46.886 42.714-12.655 17.89-19.52 37.427-19.52 58.138v6.289c0 20.361 3.904 39.667 13.751 57.903 10.53 19.934 24.747 35.435 43.657 47.757 18.564 12.237 38.391 18.24 60.476 18.24h2.057c20.023 0 38.98-3.947 56.87-13.103 18.227-9.762 33.122-23.095 44.668-40.636 11.213-17.549 17.886-36.476 20.028-57.097 0.341-4.284 0.512-8.674 0.512-12.868 0-27.981-10.692-53.901-32.085-77.423z" />
<glyph unicode="&#xe93b;" glyph-name="icontact" d="M545.067-18.671c4.971-1.404 11.703-2.236 20.198-2.547 8.495-0.307 19.392 0 32.644 0.858 12.873 0.858 23.744 2.022 32.644 3.473 8.875 1.455 16.013 3.213 21.461 5.308 5.376 2.095 9.348 4.518 11.849 7.305 2.496 2.761 3.998 5.901 4.45 9.421l61.572 467.601c0.478 3.494-0.119 6.494-1.737 9.015s-4.924 4.518-9.92 6.114c-4.996 1.549-11.755 2.62-20.271 3.068-8.521 0.478-19.418 0.265-32.717-0.619-13.227-0.879-24.196-2.091-32.858-3.708-8.683-1.621-15.727-3.571-21.129-5.833-5.402-2.257-9.374-4.783-11.849-7.565-2.496-2.782-3.972-5.901-4.425-9.399l-61.551-467.622c-0.478-3.494 0.119-6.519 1.737-8.994 1.643-2.496 4.924-4.471 9.899-5.875zM756.796 563.752c3.686 9.113 6.306 20.153 7.876 33.143 1.617 12.61 1.809 23.198 0.64 31.835-1.165 8.637-4.378 15.513-9.634 20.747-5.257 5.21-12.753 8.708-22.485 10.516-9.707 1.784-22.127 2.165-37.235 1.166-15.322-1.023-28.075-3.069-38.234-6.162-10.185-3.117-18.607-7.685-25.34-13.681s-11.921-13.467-15.561-22.413c-3.639-8.922-6.259-19.7-7.851-32.311-1.903-13.015-2.214-23.888-0.832-32.667 1.378-8.756 4.638-15.68 9.826-20.724 5.21-5.043 12.608-8.375 22.195-10.014 9.591-1.596 21.845-1.954 36.787-0.956 15.462 1.024 28.335 3.025 38.588 5.952 10.257 2.948 18.799 7.303 25.579 13.179 6.805 5.806 12.015 13.3 15.68 22.389zM590.746 742.912c12.565 6.947 17.084 22.746 10.091 35.284-4.736 8.565-13.564 13.372-22.677 13.372-4.284 0-8.61-1.047-12.608-3.284-56.269-31.192-96.149-81.68-112.329-142.138-15.701-58.602-6.946-119.751 24.555-172.069 4.855-8.090 13.47-12.587 22.272-12.587 4.57 0 9.182 1.212 13.372 3.733 12.275 7.377 16.226 23.369 8.849 35.644-24.171 40.138-30.882 87.010-18.889 131.859 12.489 46.729 43.49 85.868 87.364 110.184zM534.020 847.028c18.108 10.041 24.649 32.881 14.609 50.988s-32.879 24.649-50.987 14.609c-93.244-51.725-161.577-136.903-187.464-233.668-23.222-86.82-11.063-176.065 34.214-251.346 10.683-17.749 33.714-23.484 51.464-12.8s23.483 33.715 12.8 51.465c-34.69 57.673-43.945 126.314-26.029 193.291 20.652 77.231 75.825 145.54 151.392 187.463z" />
<glyph unicode="&#xe93c;" glyph-name="jetsloth" d="M330.787 365.346c3.651 0.188 7.166 1.442 10.111 3.61 2.945 2.163 5.191 5.146 6.46 8.572 1.269 3.43 1.505 7.155 0.679 10.714-0.826 3.563-2.678 6.801-5.327 9.323-2.649 2.517-5.978 4.207-9.575 4.851-3.598 0.649-7.306 0.226-10.667-1.212-3.36-1.442-6.225-3.831-8.24-6.882s-3.091-6.626-3.096-10.278c0.134-5.086 2.278-9.907 5.963-13.41 3.684-3.507 8.608-5.406 13.691-5.286zM503.061 371.942c-48.913 0-88.604-29.577-88.604-66.005s39.691-66.005 88.604-66.005c48.913 0 88.542 29.577 88.542 66.005s-39.693 66.005-88.542 66.005zM538.274 296.333c-13.956 0-25.609 6.404-25.609 13.956 0 7.556 11.332 13.956 25.609 13.956s25.609-6.4 25.609-13.956c0-7.552-11.588-13.956-25.609-13.956zM518.362 165.478c0 0 3.204-0.576 8.644-1.984s13.124-3.392 22.217-6.016l14.532-4.1 7.872-2.112 8.196-2.048c5.423-1.242 10.918-2.163 16.452-2.752 4.595-0.623 9.271 0.043 13.508 1.92 4.011 2.402 7.287 5.854 9.476 9.988 3.008 4.672 5.888 10.048 8.836 15.236 2.944 5.184 6.4 10.244 9.344 14.852 3.068 4.309 6.357 8.457 9.86 12.42l4.8 5.12 4.676 4.292c2.88 2.752 5.696 4.736 7.872 6.4 4.676 3.264 7.364 4.928 7.364 4.928s-1.664-2.816-4.804-7.36c-1.472-2.304-3.2-5.184-5.248-8.452-2.048-3.264-4.032-6.976-6.4-10.948-2.372-3.968-4.42-8.512-6.404-13.316-1.984-4.8-4.48-9.792-6.848-15.172-2.419-5.79-5.133-11.452-8.132-16.964-1.762-3.277-3.913-6.327-6.404-9.092-2.756-3.204-6.106-5.854-9.856-7.808-3.797-1.865-7.893-3.034-12.1-3.456-1.92 0-3.904 0-5.764 0l-5.44 0.448c-6.545 0.947-12.983 2.56-19.204 4.8-5.525 1.86-10.953 3.998-16.265 6.4-4.992 2.372-9.664 4.804-13.828 7.172-4.16 2.368-8 4.608-11.268 6.4-3.264 1.796-6.4 3.972-8.512 5.572-4.868 3.648-7.172 5.632-7.172 5.632zM940.646 405.555v0.768c-0.495 26.965-6.144 53.585-16.644 78.426-83.23 246.926-319.078 254.992-352.499 305.952-1.015-1.923-1.792-3.967-2.304-6.082-2.167-9.939-2.342-20.21-0.512-30.217 0.371-2.205 1.020-4.356 1.92-6.402-14.34 17.734-16.068 46.863-19.588 68.054-4.612 27.337-22.921 55.057-22.409 84.25-0.239-0.37-0.452-0.755-0.64-1.152-15.428-29.513 7.428-80.473-6.852-113.316 0-0.384-0.384-0.832-0.512-1.216-13.764 5.058-7.872 53.521-8.96 67.349-0.384 5.314-0.384 13.124-0.768 21.639-0.26 6.071-0.879 12.121-1.856 18.118-2.116 11.203-6.404 21.191-14.468 25.608-5.572-16.197-6.404-68.822-9.476-104.865-1.792-20.614-3.904-42.958-12.804-54.801-0.862-1.17-1.852-2.243-2.944-3.201-5.636 26.44 6.4 134.443-12.804 132.778 0-0.96-0.448-1.921-0.64-2.945-6.916-31.306-18.441-101.408-44.048-124.968-0.896-0.832-1.792-1.664-2.753-2.432-12.714-9.644-25.966-18.557-39.692-26.697-37.708-22.663-143.214-60.115-214.724-149.616-50.896-52.305-65.749-117.798-68.374-168.055-0.64-3.904-0.96-6.4-0.96-6.4 0-8.132 0-16.26 0.704-24.329 0.46-15.974 2.238-31.885 5.313-47.565l0.512-2.948c17.23-97.271 67.61-185.579 142.579-249.916 74.969-64.333 169.902-100.723 268.666-102.985 98.761-2.261 195.26 29.743 273.097 90.573 77.837 60.834 132.211 146.739 153.877 243.123 0 0 0 0.448 0 0.704 8.141 30.221 11.703 61.491 10.564 92.766zM841.412 213.495c-64.401-77.466-165.555-132.779-285.082-140.847-10.948-0.768-17.988-13.892-14.468-36.045-5.308 2.095-9.92 5.632-13.316 10.214-3.396 4.587-5.436 10.031-5.888 15.714-1.408-12.228 7.808-30.153 4.8-41.677-21.897 16.196-28.297 23.433-25.225 37.773-8.836-5.376-2.816-32.585 3.456-50.449-24.708 12.036-28.745 46.097-43.917 47.953-11.179 1.148-22.234 3.29-33.033 6.4-187.389 41.741-266.134 155.443-282.46 206.276-8.92 28.702-10.548 59.174-4.737 88.666 4.566-0.781 9.077-1.847 13.508-3.2 33.419-10.756 62.292-32.009 94.366-45.773 65.429-28.297 143.214-8.132 167.797 60.369 23.818 66.517-46.479 123.942-110.563 133.419-22.333 3.366-45.129 1.882-66.837-4.352 33.867 17.668 71.511 22.468 110.883 22.468 44.814 0.512 92.383-4.224 138.924-0.512 106.786 8.452 226.377 96.032 330.859 35.405 33.041-19.861 57.506-51.311 68.629-88.222-21.001 5.7-41.997 10.756-56.721 14.793-54.609 14.852-91.998 46.861-157.555 37.257-64.021-9.472-134.443-66.965-110.562-133.483 24.521-68.437 102.43-88.602 167.731-60.369 32.013 13.892 60.949 35.021 94.494 45.773 12.804 4.036 42.317 6.020 73.754 6.404-2.816-61.141-24.969-123.494-58.837-164.339v0.384zM255.884 401.523c0 0.576 0 1.152 0 1.728 19.924 9.681 41.873 14.468 64.020 13.956 23.636 0.636 47.021-4.975 67.797-16.26-0.535-16.956-7.744-33.011-20.057-44.676s-28.734-17.997-45.692-17.617c-4.669 0-9.326 0.495-13.892 1.472-14.461 2.607-27.569 10.155-37.085 21.35-9.516 11.2-14.85 25.353-15.091 40.047zM737.83 412.723c-0.23-14.66-5.525-28.796-14.989-40-9.463-11.2-22.515-18.782-36.932-21.457-4.574-0.926-9.229-1.395-13.892-1.408-16.96-0.38-33.378 5.952-45.692 17.617s-19.524 27.721-20.058 44.672c20.851 11.332 44.331 16.943 68.053 16.265 22.148 0.508 44.096-4.275 64.021-13.956-0.576-0.576-0.512-1.156-0.512-1.732zM643.337 395.247c-0.205-3.925 0.772-7.825 2.807-11.191 2.035-3.362 5.030-6.042 8.606-7.684 3.571-1.647 7.552-2.18 11.435-1.536 3.878 0.644 7.475 2.436 10.325 5.146s4.821 6.212 5.658 10.057c0.836 3.84 0.503 7.846-0.96 11.494-1.459 3.652-3.985 6.78-7.245 8.981s-7.104 3.371-11.034 3.366c-5.065 0.102-9.963-1.796-13.628-5.286-3.669-3.49-5.811-8.286-5.965-13.346z" />
<glyph unicode="&#xe93d;" glyph-name="link" d="M725.333 661.333h-128c-23.467 0-42.667-19.2-42.667-42.667s19.2-42.667 42.667-42.667h128c70.4 0 128-57.6 128-128s-57.6-128-128-128h-128c-23.467 0-42.667-19.2-42.667-42.667s19.2-42.667 42.667-42.667h128c117.76 0 213.333 95.573 213.333 213.333s-95.573 213.333-213.333 213.333zM341.333 448c0-23.467 19.2-42.667 42.667-42.667h256c23.467 0 42.667 19.2 42.667 42.667s-19.2 42.667-42.667 42.667h-256c-23.467 0-42.667-19.2-42.667-42.667zM426.667 320h-128c-70.4 0-128 57.6-128 128s57.6 128 128 128h128c23.467 0 42.667 19.2 42.667 42.667s-19.2 42.667-42.667 42.667h-128c-117.76 0-213.333-95.573-213.333-213.333s95.573-213.333 213.333-213.333h128c23.467 0 42.667 19.2 42.667 42.667s-19.2 42.667-42.667 42.667z" />
<glyph unicode="&#xe93e;" glyph-name="list" d="M170.667 405.333c23.467 0 42.667 19.2 42.667 42.667s-19.2 42.667-42.667 42.667c-23.467 0-42.667-19.2-42.667-42.667s19.2-42.667 42.667-42.667zM170.667 234.667c23.467 0 42.667 19.2 42.667 42.667s-19.2 42.667-42.667 42.667c-23.467 0-42.667-19.2-42.667-42.667s19.2-42.667 42.667-42.667zM170.667 576c23.467 0 42.667 19.2 42.667 42.667s-19.2 42.667-42.667 42.667c-23.467 0-42.667-19.2-42.667-42.667s19.2-42.667 42.667-42.667zM341.333 405.333h512c23.467 0 42.667 19.2 42.667 42.667s-19.2 42.667-42.667 42.667h-512c-23.467 0-42.667-19.2-42.667-42.667s19.2-42.667 42.667-42.667zM341.333 234.667h512c23.467 0 42.667 19.2 42.667 42.667s-19.2 42.667-42.667 42.667h-512c-23.467 0-42.667-19.2-42.667-42.667s19.2-42.667 42.667-42.667zM298.667 618.667c0-23.467 19.2-42.667 42.667-42.667h512c23.467 0 42.667 19.2 42.667 42.667s-19.2 42.667-42.667 42.667h-512c-23.467 0-42.667-19.2-42.667-42.667zM170.667 405.333c23.467 0 42.667 19.2 42.667 42.667s-19.2 42.667-42.667 42.667c-23.467 0-42.667-19.2-42.667-42.667s19.2-42.667 42.667-42.667zM170.667 234.667c23.467 0 42.667 19.2 42.667 42.667s-19.2 42.667-42.667 42.667c-23.467 0-42.667-19.2-42.667-42.667s19.2-42.667 42.667-42.667zM170.667 576c23.467 0 42.667 19.2 42.667 42.667s-19.2 42.667-42.667 42.667c-23.467 0-42.667-19.2-42.667-42.667s19.2-42.667 42.667-42.667zM341.333 405.333h512c23.467 0 42.667 19.2 42.667 42.667s-19.2 42.667-42.667 42.667h-512c-23.467 0-42.667-19.2-42.667-42.667s19.2-42.667 42.667-42.667zM341.333 234.667h512c23.467 0 42.667 19.2 42.667 42.667s-19.2 42.667-42.667 42.667h-512c-23.467 0-42.667-19.2-42.667-42.667s19.2-42.667 42.667-42.667zM298.667 618.667c0-23.467 19.2-42.667 42.667-42.667h512c23.467 0 42.667 19.2 42.667 42.667s-19.2 42.667-42.667 42.667h-512c-23.467 0-42.667-19.2-42.667-42.667z" />
<glyph unicode="&#xe93f;" glyph-name="mad-mimi" d="M134.748 130.33c38.5-20.945 80.327-26.108 123.727-23.066 70.508 4.941 130.626 32.58 181.21 81.348 38.174 36.804 64.631 81.408 80.286 131.644 13.619 43.627 23.437 88.435 36.092 132.365 9.801 33.988 21.414 67.465 32.294 101.148 0.717 2.245 2.082 4.266 3.166 6.389 1.143-3.552 1.165-6.492 1.122-9.411-0.243-18.434-1.468-36.909-0.55-55.281 2.633-52.382 2.449-104.619-2.697-156.898-1.856-18.739-1.143-37.764-0.858-56.666 0.145-9.903 6.861-15.292 15.945-17.924 11.84-3.409 20.497 2.795 28.578 9.877 15.902 13.965 28.642 30.746 38.519 49.199 21.129 39.437 41.502 79.305 61.406 119.377 20.881 42.031 43.746 82.637 76.591 116.767 2.308 2.409 4.919 4.532 7.369 6.777-6.263-15.881-14.063-30.396-20.924-45.34-10.044-21.879-21.086-43.499-28.719-66.24-13.231-39.441-23.151-79.859-26.091-121.626-1.92-27.209-0.858-54.195 8.798-80.060 10.697-28.663 28.028-50.995 60.855-54.016 12.919-1.182 26.598 0.533 39.296 3.571 28.066 6.737 49.438 24.58 68.343 45.585 21.453 23.842 37.602 50.586 42.543 82.82 1.365 8.9 1.446 18.146 0.734 27.149-1.062 13.35-9.882 18.782-22.72 14.882-3.738-1.143-7.266-2.982-10.863-4.574-8.9-3.959-16.777-2.308-23.778 4.245-9.331 8.738-13.129 20.292-14.618 32.316-4.634 37.478-2.53 74.795 6.592 111.356 15.475 61.975 42.095 119.521 72.265 175.556 4.514 8.39 8.981 17.086 11.494 26.191 4.877 17.78-5.82 31.376-24.252 32.049-5.615 0.204-11.349-0.041-16.905-0.898-28.983-4.491-53.99-18.189-77.163-35.193-67.426-49.523-122.257-110.090-160.836-184.803-6.494-12.557-13.82-24.661-21.679-38.605-0.593 3.123-0.922 4.245-1.003 5.372-1.532 27.985-3.55 55.952-4.407 83.939-0.939 32.335 1.225 64.425 12.045 95.352 2.266 6.491 4.51 13.044 6.042 19.74 4.574 19.863-6.063 33.233-26.274 33.050-8.593-0.081-17.207-0.755-25.762-1.49-28.702-2.49-55.706 4.961-82.206 14.453-31.723 11.35-62.972 24.047-94.882 34.846-32.862 11.105-66.669 16.964-101.637 11.881-43.134-6.267-80.266-24.639-113.234-53.096-51.953-44.849-64.16-119.685-27.946-177.904 27.436-44.113 70.467-63.569 121.052-54.016 36.112 6.818 68.774 22.007 98.516 43.38 6.737 4.838 12.757 10.839 18.415 16.943 7.202 7.737 11.695 17.065 12.245 27.823 0.491 9.615-3.878 14.249-13.41 14.555-5.167 0.163-10.351-0.183-15.497 0.020-7.531 0.306-12.407 4.491-14.656 11.452-3.776 11.758 1.186 25.639 11.533 32.6 10.496 7.063 22.293 9.901 34.807 10.778 25.903 1.796 50.155-5.512 74.428-12.881 1.246-0.388 2.287-1.47 3.571-2.327-0.858-1.47-1.348-2.613-2.082-3.572-22.353-29.089-38.848-61.465-53.628-94.862-19.614-44.316-39.010-88.758-63.607-130.648-14.125-24.047-31.681-44.459-58.321-55.339-24.762-10.108-49.871-5.658-66.854 10.146-13.473 12.553-16.535 43.255 3.919 55.381 3.348 1.98 7.043 4.284 9.084 7.407 2.776 4.267 5.777 9.472 5.757 14.251-0.041 12.433-9.145 18.453-19.556 22.208-19.127 6.882-38.97 6.78-59.016 5.798-49.482-2.389-93.8-18.308-132.606-49.237-54.259-43.234-77.898-99.537-69.998-168.29 6.736-58.829 39.827-100.105 90.595-127.727z" />
<glyph unicode="&#xe940;" glyph-name="mail" d="M853.333 789.333h-682.667c-46.933 0-85.333-38.4-85.333-85.333v-512c0-46.933 38.4-85.333 85.333-85.333h682.667c46.933 0 85.333 38.4 85.333 85.333v512c0 46.933-38.4 85.333-85.333 85.333zM836.267 608l-279.040-174.507c-27.733-17.493-62.72-17.493-90.453 0l-279.040 174.507c-10.667 6.827-17.067 18.347-17.067 30.72 0 28.587 31.147 45.653 55.467 30.72l285.867-178.773 285.867 178.773c24.32 14.933 55.467-2.133 55.467-30.72 0-12.373-6.4-23.893-17.067-30.72z" />
<glyph unicode="&#xe941;" glyph-name="mailchimp" d="M895.232 341.099c-2.402 8.422-3.49 12.237-4.745 15.996-1.037 3.102-2.185 6.17-4.284 11.772l-2.722 7.27c4.638 6.942 28.924 45.397-5.807 81.809-18.095 18.999-57.161 29.517-73.903 34.027-1.459 0.393-2.748 0.738-3.836 1.041-0.546 4.147-0.559 10.803-0.572 19.183-0.055 35.179-0.154 100.692-40.137 137.815 39.326 40.762 63.859 85.667 63.804 124.179-0.115 74.072-91.081 96.468-203.191 50.069l-23.735-10.082-11.75 11.512c-12.77 12.517-31.428 30.806-31.851 31.179-127.773 111.449-527.397-332.701-399.625-440.596l27.919-23.663c-7.535-20.215-10.192-41.929-7.756-63.364 6.356-63.177 68.095-114.287 127.735-114.21 109.198-251.686 506.74-252.105 609.622-5.675 3.29 8.452 17.233 46.549 17.233 80.162s-19.085 47.799-31.266 47.799h-0.060l-1.075 3.776zM729.527 473.651c-4.745 6.016-8.964 15.735-11.345 27.081-4.22 20.203-3.763 34.823 8.021 36.734s17.498-10.327 21.713-30.509c2.837-13.585 2.291-26.065-0.849-33.31-5.824 0.755-11.721 0.755-17.54 0.004zM628.164 457.604c-8.435 3.708-19.405 7.834-32.649 6.997-11.238-0.683-21.022-3.759-28.399-6.076-8.265-2.598-13.5-4.245-14.349-0.503-0.755 3.477 4.557 9.229 10.231 13.355 16.759 12.271 38.711 14.912 57.903 6.959 16.341-6.997 26.5-21.090 22.925-24.759-1.997-2.091-6.972 0.137-15.083 3.767l-0.58 0.26zM585.66 428.796l0.474-0.188c1.395-0.589 2.483-1.045 9.382 1.719 11.29 4.262 23.488 5.534 35.409 3.691l0.269-0.034c5.342-0.619 7.906-0.917 9.075 0.96 2.765 4.198-10.816 15.134-29.129 12.958-17.156-2.688-28.373-12.352-25.481-19.106zM713.604 415.556l0.038 0.055c-6.43-13.069-33.519 0.077-27.085 13.184 6.43 13.111 33.442-0.243 27.046-13.239zM742.733 424.145c14.549-0.247 15.095 29.905 0.533 30.187l-0.038-0.055c-14.49 0.247-15.040-29.888-0.495-30.131zM329.378 305.033l0.038 0.060c4.674 1.054 6.020-0.094 6.349-0.755 1.007-1.25 1.153-2.991 0.367-4.39-5.978-13.943-38.19-14.528-40.82 17.024-0.601 7.177 1.367 14.195 3.248 20.898 3.503 12.489 6.703 23.898-7.561 33.237-5.401 3.575-12.008 4.843-18.35 3.524-6.342-1.323-11.892-5.124-15.415-10.56-2.302-3.601-3.707-7.689-4.968-11.354-2.157-6.276-3.894-11.328-8.992-10.645-7.037 1.020-7.018 27.388 9.457 45.547 13.676 15.134 49.085 22.566 66.298-10.479 8.684-16.478 2.566-31.134-2.595-43.494-3.956-9.472-7.348-17.6-3.080-24.166 4.63-7.121 13.366-5.069 15.953-4.459l0.069 0.013zM335.764 304.337v0c0.022-0.649 0.207-0.414 0 0zM298.584 246.225c-43.165 1.156-89.772 40.009-94.406 86.084-11.671 115.972 140.465 142.374 158.889 23.322 8.588-56.064-8.834-110.635-64.539-109.346l0.057-0.060zM194.153 417.882c-9.231 7.701-26.481 22.699-29.489 28.373-24.609 47.006 26.935 138.083 62.988 189.551 89.11 127.168 228.647 223.409 293.283 205.95 10.496-2.97 45.282-43.297 45.282-43.297s-64.597-35.826-124.463-85.781c-80.692-62.137-141.656-152.439-178.182-250.44-28.676-5.581-53.946-21.828-69.419-44.356zM715.422 270.912c0 0-67.605-10.027-131.482 13.372 5.466 17.737 16.896 16.478 40.772 13.845 27.452-3.025 71.36-7.868 141.572 12.275 28.919 8.286 66.901 24.593 96.469 47.953 6.362-14.699 10.884-30.123 13.466-45.926 6.925 1.246 26.957 0.981 21.641-34.24-6.225-37.581-22.187-68.092-49.050-96.162-16.777-18.18-36.749-33.126-58.918-44.092-12.352-6.473-25.22-11.9-38.477-16.23-101.214-33.062-204.851 3.29-238.332 81.335-2.714 5.956-4.962 12.117-6.716 18.423-14.242 51.452-2.155 113.169 35.635 152.021 2.33 2.479 4.693 5.393 4.693 9.062-0.329 3.157-1.596 6.148-3.631 8.589-2.62 3.789-6.511 8.107-10.999 13.090-18.197 20.19-46.178 51.247-38.805 101.969 6.622 45.398 46.323 77.384 83.358 75.492l9.459-0.549c7.667-0.452 14.874-1.159 21.751-1.834 7.509-0.737 14.626-1.436 21.525-1.722 22.114-0.945 41.993 2.251 65.523 21.866l1.301 1.088c7.36 6.156 13.611 11.384 23.782 13.118 8.794 2.178 18.095 0.646 25.724-4.237 18.914-12.56 21.564-42.995 22.549-65.239 0.546-12.712 2.078-43.504 2.607-52.264 1.195-20.181 6.49-23.019 17.233-26.479 4.685-1.545 9.105-2.778 14.711-4.343l5.167-1.446c24.99-7.019 39.723-14.148 49.182-23.283 4.821-4.727 7.97-10.897 8.964-17.574 2.953-21.508-16.683-48.043-68.681-72.179-84.036-39.006-168.521-28.54-187.639-26.172-0.981 0.124-1.792 0.222-2.423 0.294-38.114 5.124-59.827-44.109-36.979-77.837 42.825-63.198 231.526-37.833 286.323 40.384 1.306 1.89 0.226 3.008-1.382 1.89-79.006-54.059-183.59-72.273-242.987-49.178-9.020 3.499-27.861 12.181-30.148 31.531 82.47-25.515 134.298-1.399 134.298-1.399s3.84 5.278-1.058 4.787zM533.76 722.665c0.542 0.321 1.233 0.234 1.677-0.212 0.448-0.446 0.533-1.137 0.213-1.679-2.761-5.032-8.115-15.776-9.818-23.928-0.137-0.574 0.094-1.174 0.58-1.506s1.131-0.328 1.613 0.012c21.734 14.81 59.546 30.68 92.685 32.723 0.644 0.044 1.237-0.338 1.463-0.94s0.034-1.28-0.478-1.671c-5.478-4.222-10.385-9.144-14.583-14.64-0.311-0.427-0.358-0.99-0.124-1.463s0.713-0.776 1.237-0.788c23.287-0.17 56.107-8.323 77.555-20.315 1.438-0.814 0.414-3.613-1.212-3.254-131.554 30.151-232.811-35.050-254.413-50.749-0.593-0.384-1.378-0.277-1.847 0.251-0.474 0.528-0.491 1.32-0.043 1.868l-0.111-0.019c31.663 36.601 70.665 68.436 105.604 86.31z" />
<glyph unicode="&#xe942;" glyph-name="mailgun" d="M512.969 625.467c-98.121 0-177.907-79.684-177.907-177.467s79.831-177.468 177.907-177.468c98.074 0 177.907 79.684 177.907 177.468s-79.834 177.467-177.907 177.467zM235.988 448c0 152.651 124.080 276.496 276.98 276.496s276.966-123.992 276.966-276.628c0-10.56-0.969-20.169-1.907-29.773-1.907-26.884 17.306-47.036 44.233-47.036 45.205 0 49.869 58.564 49.869 77.76 0 204.5-165.44 369.602-370.274 369.602-204.836 0-370.129-165.103-370.129-369.602 0-204.497 165.425-369.596 370.275-369.596 108.531 0 205.815 47.036 274.121 120.969l75.972-63.36c-85.594-96.009-210.611-156.493-350.093-156.493-259.673-0.030-469.333 210.231-469.333 468.48 0 259.221 210.613 468.514 469.333 468.514 259.674 0 469.333-210.261 469.333-468.514 0-103.693-49.869-188.173-149.073-188.173-44.233 0-70.208 20.169-85.594 42.24-49.045-78.729-135.607-130.56-235.635-130.56-150.993-0.956-275.058 122.906-275.058 275.529l0.015 0.145zM512.969 529.604c45.201 0 81.749-36.476 81.749-80.636 0-45.129-36.548-81.604-81.749-81.604s-81.754 36.326-81.754 81.455c0.969 44.147 36.553 80.64 81.754 80.64v0.145z" />
<glyph unicode="&#xe943;" glyph-name="merge-tag" d="M388.491 441.95c0 24.806 20.108 45.146 44.913 45.146 24.802 0 44.911-20.339 44.911-45.146 0-24.802-20.109-45.141-44.911-45.141-24.805 0-44.913 20.339-44.913 45.141zM657.963 441.95c0-24.802-20.105-45.141-44.911-45.141-24.802 0-44.911 20.339-44.911 45.141 0 24.806 20.109 45.146 44.911 45.146 24.806 0 44.911-20.339 44.911-45.146zM731.396 678.952h-73.429v67.715h73.429c41.609 0 72.973-19.372 92.446-49.34 18.33-28.201 24.998-63.729 24.998-97.511v-47.084c0-47.601 30.238-74.801 56.141-74.801l33.685-33.86v-1.399l-33.745-33.856c-26.001 0.047-56.081-26.786-56.081-74.308v-72.363c0-33.566-6.588-66.24-27.989-90.509-22.165-25.135-54.084-34.492-89.455-34.492h-73.429v67.716h73.429c24.273 0 34.236 6.238 39.040 11.691 5.568 6.315 11.038 19.209 11.038 45.594v72.363c0 41.485 16.021 81.941 43.622 108.996-27.622 27.221-43.622 67.857-43.622 109.228v47.084c0 26.213-5.389 47.182-14.029 60.478-7.497 11.531-18.014 18.658-36.049 18.658zM315.059 678.952c-38.622 0-72.533-35.313-72.533-79.136v-48.044c0.001-14.3 0.002-30.147-1.6-44.982-1.649-15.275-5.222-32.196-14.097-47.74-3.281-5.747-7.038-10.923-11.252-15.565 4.192-4.595 7.934-9.728 11.206-15.42 8.91-15.509 12.49-32.397 14.141-47.637 1.603-14.797 1.603-30.618 1.602-44.911v-73.374c0-20.224 7.378-33.033 18.031-41.553 11.601-9.28 30.071-15.689 54.502-15.689h50.976v-67.716h-50.976c-35.213 0-69.852 9.143-96.448 30.417-27.544 22.029-43.453 54.771-43.453 94.541v72.41c0 15.454-0.038 27.772-1.205 38.545-1.156 10.667-3.19 17.067-5.507 21.103-2.473 4.301-9.827 14.66-49.428 14.66l-33.684 33.856v1.353l33.684 33.86c39.464 0 46.852 10.394 49.382 14.827 2.353 4.117 4.394 10.615 5.552 21.338 1.169 10.829 1.207 23.187 1.207 38.636v47.084c0 76.167 59.237 146.851 139.901 146.851h50.976v-67.715h-50.976z" />
<glyph unicode="&#xe944;" glyph-name="minus" d="M0 442.664c0 47.132 38.206 85.339 85.334 85.339h853.327c47.132 0 85.339-38.208 85.339-85.339s-38.208-85.324-85.339-85.324h-853.327c-47.126 0-85.334 38.196-85.334 85.324z" />
<glyph unicode="&#xe945;" glyph-name="misc" d="M604.587 375.040l59.733 103.253c3.84 6.4 2.133 14.507-3.413 19.2l-63.147 49.493c1.28 9.387 2.133 19.2 2.133 29.013s-0.853 19.627-2.133 29.44l63.147 49.493c5.547 4.693 7.253 12.8 3.413 19.2l-59.733 103.253c-3.84 6.4-11.52 8.96-18.347 6.4l-74.24-29.867c-15.36 11.947-32 21.76-50.347 29.44l-11.093 78.933c-1.28 6.827-7.68 12.373-14.933 12.373h-119.467c-7.253 0-13.653-5.547-14.933-12.8l-11.093-78.933c-17.92-7.68-34.987-17.493-50.347-29.44l-74.24 29.867c-6.827 2.56-14.507 0-18.347-6.4l-59.733-103.253c-3.84-6.4-2.133-14.507 3.413-19.2l63.147-49.493c-1.28-9.387-2.133-19.2-2.133-29.013s0.853-19.627 2.133-29.44l-63.147-49.493c-5.547-4.693-7.253-12.8-3.413-19.2l59.733-103.253c3.84-6.4 11.52-8.96 18.347-6.4l74.24 29.867c15.36-11.947 32-21.76 50.347-29.44l11.093-78.933c1.28-6.827 7.68-12.373 14.933-12.373h119.467c7.253 0 13.653 5.547 14.933 12.8l11.093 78.933c17.92 7.68 34.987 17.493 50.347 29.44l74.24-29.867c6.827-2.56 14.507 0 18.347 6.4zM375.893 490.667c-46.933 0-85.333 38.4-85.333 85.333s38.4 85.333 85.333 85.333c46.933 0 85.333-38.4 85.333-85.333s-38.4-85.333-85.333-85.333zM935.253 163.413l-40.96 31.573c0.853 5.973 1.707 12.373 1.707 18.773s-0.427 12.8-1.707 18.773l40.533 31.573c3.413 2.987 4.693 8.107 2.133 12.373l-38.4 66.133c-2.133 4.267-7.253 5.547-11.947 4.267l-47.36-19.2c-9.813 7.68-20.48 14.080-32.427 18.773l-7.253 50.347c-0.427 5.12-4.693 8.533-8.96 8.533h-76.373c-4.693 0-8.96-3.413-9.387-8.107l-7.253-50.347c-11.52-5.12-22.613-11.093-32.427-18.773l-47.36 19.2c-4.267 1.707-9.387 0-11.947-4.267l-38.4-66.133c-2.133-4.267-1.707-9.387 2.133-12.373l40.533-31.573c-0.853-5.973-1.28-12.373-1.28-18.773s0.427-12.8 1.28-18.773l-40.533-31.573c-3.413-2.987-4.693-8.107-2.133-12.373l38.4-66.133c2.133-4.267 7.253-5.547 11.947-4.267l47.36 19.2c9.813-7.68 20.48-14.080 32.427-18.773l7.253-50.347c0.853-4.693 4.693-8.107 9.387-8.107h76.373c4.693 0 8.96 3.413 9.387 8.107l7.253 50.347c11.52 5.12 22.613 11.093 32 18.773l47.787-19.2c4.267-1.707 9.387 0 11.947 4.267l38.4 66.133c2.56 3.84 1.28 8.96-2.133 11.947zM752.213 156.587c-31.573 0-57.6 25.6-57.6 57.6s25.6 57.6 57.6 57.6c32 0 57.6-25.6 57.6-57.6s-26.027-57.6-57.6-57.6z" />
<glyph unicode="&#xe946;" glyph-name="mollie" d="M963.383 318.98c-56.051-196.467-236.928-340.314-451.383-340.314-259.206 0-469.333 210.129-469.333 469.333 0 259.206 210.127 469.333 469.333 469.333 205.606 0 380.331-132.218 443.797-316.254 16.55-47.987 25.536-99.482 25.536-153.079 0-44.749-6.263-88.026-17.95-129.020zM853.333 493.355c0 52.462-18.423 102.967-51.738 142.001-33.318 39.301-78.933 63.427-128.555 67.903-5.897 0.504-11.567 0.741-17.493 0.741-54.81 0-106.803-23.622-144.128-65.413-37.35 41.554-89.087 65.413-143.449 65.413-108.695 0-197.304-93.007-197.304-207.415v-261.918h106.325v258.688c0 47.512 37.097 91.26 80.823 96.002 0.329 0.026 0.659 0.051 0.988 0.077 2.743 0.215 5.464 0.427 7.983 0.427 49.171 0 89.342-42.295 89.568-94.014v-261.18h108.698v259.191c0 47.246 36.868 91.023 80.823 95.735 3.072 0.267 6.148 0.504 8.969 0.504 49.173 0 89.57-42.028 89.796-93.513v-261.918h108.693v258.688z" />
<glyph unicode="&#xe947;" glyph-name="monetization-on" d="M512 874.667c-235.52 0-426.667-191.147-426.667-426.667s191.147-426.667 426.667-426.667c235.52 0 426.667 191.147 426.667 426.667s-191.147 426.667-426.667 426.667zM572.16 188.16v-24.747c0-31.147-25.6-56.747-56.747-56.747h-0.427c-31.147 0-56.747 25.6-56.747 56.747v25.6c-56.747 11.947-107.093 43.093-128.427 95.573-9.813 23.467 8.533 49.493 34.133 49.493h10.24c15.787 0 28.587-10.667 34.56-25.6 12.373-32 44.8-54.187 107.093-54.187 83.627 0 102.4 41.813 102.4 67.84 0 35.413-18.773 68.693-113.92 91.307-105.813 25.6-178.347 69.12-178.347 156.587 0 73.387 59.307 121.173 132.693 136.96v25.6c0 31.147 25.6 56.747 56.747 56.747h0.427c31.147 0 56.747-25.6 56.747-56.747v-26.453c58.88-14.507 96-51.2 112.213-96.427 8.533-23.467-9.387-48.213-34.56-48.213h-11.093c-15.787 0-28.587 11.093-32.853 26.453-9.813 32.427-36.693 53.333-90.453 53.333-64 0-102.4-29.013-102.4-69.973 0-35.84 27.733-59.307 113.92-81.493s178.347-59.307 178.347-166.827c-0.853-78.080-59.307-120.747-133.547-134.827z" />
</font>
</defs>
</svg>
